\m/ 80's metal \m/

Информационно-аналитический форум "80 см пыли" (In Search We Trust) "У нас никто никуда не спешит"
Железнодорожная биржа - RailAgent
It is currently 16 Dec 2017

All times are UTC + 3 hours

Spoiler
Chat - temporary registration for foreign users (please leave your application here)







Post new topic Reply to topic  [ 12 posts ] 
Author Message
 
PostPosted: 08 Sep 2010 
ыыыы
User avatar
Joined: 17 May 2009
Posts: 952
Lоcаtion: Пушкино, МО
Age: 39
Name: Дмитрий
Image


Жанр: Heavy Metal
Происхождение исполнителя: Англия
Год издания: 1978
Год издания данного носителя: 1990
Страна-производитель носителя: Япония
Аудио кодек: FLAC
Тип рипа: image+.cue
Битрейт аудио: lossless
Продолжительность: 42:26
Рип: Собственный
Лейбл: GULL/TEICHIKU
Каталоговый номер: TECP-25388
Матрица: TECP-25388 2 (SONY)

Треклист:
1. Dying to Meet You 06:15
2. Never Satisfied 04:45
3. Rocka Rolla 02:59
4. Diamonds and Rust 03:17
5. Victim of Changes 07:38
6. Island of Domination 04:11
7. The Ripper 02:50
8. Deceiver 02:45
9. Epitaph 03:23
10. One for the Road 04:23

"Куй"
REM GENRE "Hard Rock"
REM DATE 1978
REM DISCID 9109F20A
REM COMMENT "ExactAudioCopy v0.99pb5"
PERFORMER "Judas Priest"
TITLE "The Best Of Judas Priest [TECP-25388]"
FILE "Judas Priest - The Best Of Judas Priest [TECP-25388].flac" WAVE
TRACK 01 AUDIO
TITLE "Dying To Meet You"
PERFORMER "Judas Priest"
INDEX 01 00:00:00
TRACK 02 AUDIO
TITLE "Never Satisfied"
PERFORMER "Judas Priest"
INDEX 00 06:12:07
INDEX 01 06:15:05
TRACK 03 AUDIO
TITLE "Rocka Rolla"
PERFORMER "Judas Priest"
INDEX 00 10:59:07
INDEX 01 11:00:25
TRACK 04 AUDIO
TITLE "Diamonds And Rust"
PERFORMER "Judas Priest"
INDEX 00 13:57:20
INDEX 01 13:59:45
TRACK 05 AUDIO
TITLE "Victim Of Changes"
PERFORMER "Judas Priest"
INDEX 00 17:13:15
INDEX 01 17:16:62
TRACK 06 AUDIO
TITLE "Island Of Domination"
PERFORMER "Judas Priest"
INDEX 01 24:55:02
TRACK 07 AUDIO
TITLE "The Ripper"
PERFORMER "Judas Priest"
INDEX 01 29:05:72
TRACK 08 AUDIO
TITLE "Deceiver"
PERFORMER "Judas Priest"
INDEX 00 31:53:00
INDEX 01 31:55:47
TRACK 09 AUDIO
TITLE "Epitaph"
PERFORMER "Judas Priest"
INDEX 00 34:38:47
INDEX 01 34:40:20
TRACK 10 AUDIO
TITLE "One For The Road"
PERFORMER "Judas Priest"
INDEX 00 37:58:27
INDEX 01 38:03:45


"Лог"
Exact Audio Copy V0.99 prebeta 5 from 4. May 2009

Отчёт EAC об извлечении, выполненном 8. сентября 2010, 9:45

Judas Priest / The Best Of Judas Priest [TECP-25388]

Дисковод: Optiarc DVD RW AD-7200A Adapter: 1 ID: 0

Режим чтения : Достоверность
Использование точного потока : Да
Отключение кэша аудио : Да
Использование указателей C2 : Нет

Коррекция смещения при чтении : 48
Способность читать области Lead-in и Lead-out : Нет
Заполнение пропущенных сэмплов тишиной : Да
Удаление блоков с тишиной в начале и конце : Нет
При вычислениях CRC использовались нулевые сэмплы : Да
Интерфейс : Встроенный Win32-интерфейс для Win NT/2000

Выходной формат : Пользовательский кодировщик
Выбранный битрейт : 128 kBit/s
Качество : Высокий
Добавление ID3-тэга : Нет
Утилита сжатия : C:\Program Files\Exact Audio Copy\Flac\flac.exe
Дополнительные параметры : -8 -V -T "artist=%a" -T "title=%t" -T "album=%g" -T "date=%y" -T "tracknumber=%n" -T "genre=%m" -T "comment=EAC


TOC извлечённого CD

Трек | Старт | Длительность | Начальный сектор | Конечный сектор
---------------------------------------------------------------------
1 | 0:00.00 | 6:15.05 | 0 | 28129
2 | 6:15.05 | 4:45.20 | 28130 | 49524
3 | 11:00.25 | 2:59.20 | 49525 | 62969
4 | 13:59.45 | 3:17.17 | 62970 | 77761
5 | 17:16.62 | 7:38.15 | 77762 | 112126
6 | 24:55.02 | 4:10.70 | 112127 | 130946
7 | 29:05.72 | 2:49.50 | 130947 | 143671
8 | 31:55.47 | 2:44.48 | 143672 | 156019
9 | 34:40.20 | 3:23.25 | 156020 | 171269
10 | 38:03.45 | 4:22.42 | 171270 | 190961


Характеристики диапазона извлечения и сообщения об ошибках

Выбранный диапазон

Имя файла Y:\Музыка\Judas Priest\1978 The Best Of Judas Priest\Judas Priest - The Best Of Judas Priest [TECP-25388].wav

Пиковый уровень 92.9 %
Качество диапазона 100.0 %
CRC копии E48F9640
Копирование... OK

Ошибок не произошло


AccurateRip: сводка

Трек 1 нет в базе данных
Трек 2 нет в базе данных
Трек 3 нет в базе данных
Трек 4 нет в базе данных
Трек 5 нет в базе данных
Трек 6 нет в базе данных
Трек 7 нет в базе данных
Трек 8 нет в базе данных
Трек 9 нет в базе данных
Трек 10 нет в базе данных

Ни одного трека нет в базе AccurateRip

Конец отчёта


Состав:
Все причастные

TECP-25388

_________________
Витасу до Даймонда как Алсу до Руссоса | При переразмещении - спрашивать разрешение!!


Top
 Profile  
 
 
PostPosted: 08 Sep 2010 
ыыыы
User avatar
Joined: 17 May 2009
Posts: 952
Lоcаtion: Пушкино, МО
Age: 39
Name: Дмитрий
На голове у правого лыцаря крышка от унитаза???

_________________
Витасу до Даймонда как Алсу до Руссоса | При переразмещении - спрашивать разрешение!!


Top
 Profile  
 
 
PostPosted: 08 Sep 2010 
Motörheadache
User avatar
Joined: 04 Feb 2010
Posts: 1293
Lоcаtion: Впереди- горы,позади-степи
Age: 44
Name: Александр
iezuit wrote:
На голове у правого лыцаря крышка от унитаза

От боевого унитаза.... :umnik: :crazy:

_________________
Eine Nation, Ein Land, Eine Schnaps!

Наш священный долг:защищать Родину,и соблюдать правила личной гигиены....!


Top
 Profile E-mail  
 
 
PostPosted: 08 Sep 2010 
Доктор энтомологии
User avatar
Joined: 22 Jan 2009
Posts: 8536
Lоcаtion: Даугавпилс
Age: 42
Name: Алексей
Гламурный какой-то вунитас :oops:


Top
 Profile  
 
 
PostPosted: 08 Sep 2010 
Персональный статус
Joined: 14 May 2010
Posts: 236
Age: 36
Name: Денис
да уж, к такому доспэху нужно седло помощнее. :black:


Top
 Profile  
 
 
PostPosted: 08 Sep 2010 
Motörheadache
User avatar
Joined: 04 Feb 2010
Posts: 1293
Lоcаtion: Впереди- горы,позади-степи
Age: 44
Name: Александр
disabled wrote:
да уж, к такому доспэху нужно седло помощнее

Ога...и ваще..катана неподойдёт...
Тут бы двуручный меч-кладенец пободрее смотрелсо....

_________________
Eine Nation, Ein Land, Eine Schnaps!

Наш священный долг:защищать Родину,и соблюдать правила личной гигиены....!


Top
 Profile E-mail  
 
 
PostPosted: 08 Sep 2010 
Хиппей (support team)
User avatar
Joined: 30 Jul 2007
Posts: 97115
Lоcаtion: Киев (Kyiv, UA)
Age: 44
Name: Andrey
Спасибо за Дон Ки Хота с крылышкаме! :true:

_________________


Top
 Profile E-mail  
 
 
PostPosted: 08 Sep 2010 
Motörheadache
User avatar
Joined: 04 Feb 2010
Posts: 1293
Lоcаtion: Впереди- горы,позади-степи
Age: 44
Name: Александр
Scatterbrain wrote:
Спасибо за Дон Ки Хота с крылышкаме

А с унитазом по-ходу Санчопанса ?!

_________________
Eine Nation, Ein Land, Eine Schnaps!

Наш священный долг:защищать Родину,и соблюдать правила личной гигиены....!


Top
 Profile E-mail  
 
 
PostPosted: 08 Sep 2010 
Хиппей (support team)
User avatar
Joined: 30 Jul 2007
Posts: 97115
Lоcаtion: Киев (Kyiv, UA)
Age: 44
Name: Andrey
alexx1973 wrote:
А с унитазом по-ходу Санчопанса ?!

Он самый. Тока японскей :black:

_________________


Top
 Profile E-mail  
 
 
PostPosted: 08 Sep 2010 
Пионэръ
User avatar
Joined: 02 Jul 2010
Posts: 45
Lоcаtion: Сочи
Age: 45
Name: Борис
Сравнил со своим Japan SHM-CD Remaster :dash: и лишний раз убедился :nea:
что ремастеру место в топке
СПАСИБО Дима :true: :meloman: :true: :meloman:


Top
 Profile E-mail  
 
 
PostPosted: 08 Sep 2010 
ыыыы
User avatar
Joined: 17 May 2009
Posts: 952
Lоcаtion: Пушкино, МО
Age: 39
Name: Дмитрий
...Зато у вас море есть! :crazy: :fingal:

_________________
Витасу до Даймонда как Алсу до Руссоса | При переразмещении - спрашивать разрешение!!


Top
 Profile  
 
 
PostPosted: 08 Sep 2010 
дядя Миша
User avatar
Joined: 17 Oct 2008
Posts: 2801
Lоcаtion: USSR
Age: 55
Name: Khy
Quote:
...Зато у вас море есть!


А сильные любят берег........ :cry:


Top
 Profile  
 
Display posts from previous:  Sort by  
Post new topic Reply to topic  [ 12 posts ] 

All times are UTC + 3 hours


Who is online

Users browsing this forum: No registered users and 1 guest


You cannot post new topics in this forum
You cannot reply to topics in this forum
You cannot edit your posts in this forum
You cannot delete your posts in this forum
You cannot post attachments in this forum

Search for:
Яндекс.Метрика
Powered by phpBB © 2000, 2002, 2005, 2007 phpBB Group