\m/ 80's metal \m/

Информационно-аналитический форум "80 см пыли" (In Search We Trust) "У нас никто никуда не спешит"
Железнодорожная биржа - RailAgent
It is currently 16 Dec 2017

All times are UTC + 3 hours

Spoiler
Chat - temporary registration for foreign users (please leave your application here)







Post new topic Reply to topic  [ 6 posts ] 
Author Message
 
PostPosted: 07 Aug 2010 
ыыыы
User avatar
Joined: 17 May 2009
Posts: 952
Lоcаtion: Пушкино, МО
Age: 39
Name: Дмитрий
Image


Жанр: Heavy Metal
Происхождение исполнителя: Англия
Год издания: 1993
Год издания данного носителя: 1993
Страна-производитель носителя: Япония
Аудио кодек: FLAC
Тип рипа: image+.cue
Битрейт аудио: lossless
Продолжительность: 73:51 + 73:14
Рип: Собственный
Лейбл: COLUMBIA/EPIC
Каталоговый номер: ESCA-5750~1

Диск1
Матрица: DP-5913 1 (SONY)

Треклист:
1. The Hellion 00:37
2. Electric Eye 03:43
3. Victim Of Changes (live) 07:23
4. Painkiller 06:06
5. Eat Me Alive 03:35
6. Devil's Child 04:47
7. Dissident Aggressor 03:08
8. Delivering The Goods 04:16
9. Exciter 05:04
10. Breaking The Law 02:35
11. Hell Bent For Leather 02:40
12. Blood Red Skies 07:49
13. Metal Gods 04:09
14. Before The Dawn 03:22
15. Turbo Lover 05:33
16. Ram It Down 04:49
17. Metal Meltdown 04:16
"Куй"
REM GENRE Metal
REM DATE 1993
REM DISCID E1114E11
REM COMMENT "ExactAudioCopy v0.95b4"
PERFORMER "Judas Priest"
TITLE "Metal Works '73-'93 [Disc 1] [ESCA 5750~1]"
FILE "Judas Priest - Metal Works '73-'93 [Disc 1] [ESCA 5750~1].flac" WAVE
TRACK 01 AUDIO
TITLE "The Hellion"
PERFORMER "Judas Priest"
INDEX 01 00:00:00
TRACK 02 AUDIO
TITLE "Electric Eye"
PERFORMER "Judas Priest"
INDEX 01 00:36:50
TRACK 03 AUDIO
TITLE "Victim Of Changes [live]"
PERFORMER "Judas Priest"
INDEX 01 04:20:10
TRACK 04 AUDIO
TITLE "Painkiller"
PERFORMER "Judas Priest"
INDEX 01 11:43:02
TRACK 05 AUDIO
TITLE "Eat Me Alive"
PERFORMER "Judas Priest"
INDEX 01 17:48:70
TRACK 06 AUDIO
TITLE "Devil's Child"
PERFORMER "Judas Priest"
INDEX 01 21:23:57
TRACK 07 AUDIO
TITLE "Dissident Aggressor"
PERFORMER "Judas Priest"
INDEX 01 26:10:47
TRACK 08 AUDIO
TITLE "Delivering The Goods"
PERFORMER "Judas Priest"
INDEX 01 29:18:60
TRACK 09 AUDIO
TITLE "Exciter"
PERFORMER "Judas Priest"
INDEX 01 33:34:52
TRACK 10 AUDIO
TITLE "Breaking The Law"
PERFORMER "Judas Priest"
INDEX 01 38:39:12
TRACK 11 AUDIO
TITLE "Hell Bent For Leather"
PERFORMER "Judas Priest"
INDEX 01 41:13:67
TRACK 12 AUDIO
TITLE "Blood Red Skies"
PERFORMER "Judas Priest"
INDEX 01 43:53:57
TRACK 13 AUDIO
TITLE "Metal Gods"
PERFORMER "Judas Priest"
INDEX 01 51:42:47
TRACK 14 AUDIO
TITLE "Before The Dawn"
PERFORMER "Judas Priest"
INDEX 00 55:49:70
INDEX 01 55:51:50
TRACK 15 AUDIO
TITLE "Turbo Lover"
PERFORMER "Judas Priest"
INDEX 01 59:13:25
TRACK 16 AUDIO
TITLE "Ram It Down"
PERFORMER "Judas Priest"
INDEX 01 64:46:30
TRACK 17 AUDIO
TITLE "Metal Meltdown"
PERFORMER "Judas Priest"
INDEX 01 69:35:00


"Лог"
EAC extraction logfile from 29. December 2009, 23:09 for CD
Judas Priest / Metal Works '73-'93 [Disc 1] [ESCA 5750~1]

Used drive : ASUS DRW-2014S1 Adapter: 0 ID: 0
Read mode : Secure with NO C2, accurate stream, disable cache
Read offset correction : 6
Overread into Lead-In and Lead-Out : No

Used output format : Internal WAV Routines
44.100 Hz; 16 Bit; Stereo

Other options :
Fill up missing offset samples with silence : Yes
Delete leading and trailing silent blocks : No
Installed external ASPI interface


Range status and errors
Selected range
Filename Y:\Музыка\Judas Priest\1993 Metal Works\Judas Priest - Metal Works '73-'93 [Disc 1] [ESCA 5750~1].wav

Peak level 100.0 %
Range quality 100.0 %
CRC 94824BE0
Copy OK

No errors occured

End of status report


Диск2
Матрица: DP-5914 1 (SONY)

Треклист:
1. Screaming For Vengeance 04:42
2. You've Got Another Thing Comin' 05:07
3. Beyond The Realms Of Death 06:52
4. Solar Angels 04:02
5. Bloodstone 03:52
6. Desert Plains 04:30
7. Wild Nights, Hot & Crazy Days 04:40
8. Heading Out To The Highway (live) 04:41
9. Living After Midnight 03:27
10. A Touch Of Evil 05:45
11. The Rage 04:44
12. Night Comes Down 04:00
13. Sinner 06:42
14. Freewheel Burning 04:23
15. Night Crawler 05:47

"Куй"
REM GENRE Metal
REM DATE 1993
REM DISCID D9112A0F
REM COMMENT "ExactAudioCopy v0.95b4"
PERFORMER "Judas Priest"
TITLE "Metal Works '73-'93 [Disc 2] [ESCA-5750~1]"
FILE "Judas Priest - Metal Works '73-'93 [Disc 2] [ESCA-5750~1].flac" WAVE
TRACK 01 AUDIO
TITLE "Screaming For Vengeance"
PERFORMER "Judas Priest"
INDEX 01 00:00:00
TRACK 02 AUDIO
TITLE "You've Got Another Thing Comin'"
PERFORMER "Judas Priest"
INDEX 01 04:42:37
TRACK 03 AUDIO
TITLE "Beyond The Realms Of Death"
PERFORMER "Judas Priest"
INDEX 01 09:49:67
TRACK 04 AUDIO
TITLE "Solar Angels"
PERFORMER "Judas Priest"
INDEX 01 16:42:22
TRACK 05 AUDIO
TITLE "Bloodstone"
PERFORMER "Judas Priest"
INDEX 01 20:44:05
TRACK 06 AUDIO
TITLE "Desert Plains"
PERFORMER "Judas Priest"
INDEX 01 24:36:40
TRACK 07 AUDIO
TITLE "Wild Nights, Hot & Crazy Days"
PERFORMER "Judas Priest"
INDEX 01 29:07:00
TRACK 08 AUDIO
TITLE "Heading Out To The Highway [Live]"
PERFORMER "Judas Priest"
INDEX 01 33:46:50
TRACK 09 AUDIO
TITLE "Living After Midnight"
PERFORMER "Judas Priest"
INDEX 01 38:27:37
TRACK 10 AUDIO
TITLE "A Touch Of Evil"
PERFORMER "Judas Priest"
INDEX 01 41:54:07
TRACK 11 AUDIO
TITLE "The Rage"
PERFORMER "Judas Priest"
INDEX 01 47:38:55
TRACK 12 AUDIO
TITLE "Night Comes Down"
PERFORMER "Judas Priest"
INDEX 01 52:22:32
TRACK 13 AUDIO
TITLE "Sinner"
PERFORMER "Judas Priest"
INDEX 01 56:22:00
TRACK 14 AUDIO
TITLE "Freewheel Burning"
PERFORMER "Judas Priest"
INDEX 01 63:04:20
TRACK 15 AUDIO
TITLE "Night Crawler"
PERFORMER "Judas Priest"
INDEX 01 67:27:42


"Лог"
EAC extraction logfile from 29. December 2009, 23:52 for CD
Judas Priest / Metal Works '73-'93 [Disc 2] [ESCA-5750~1]

Used drive : ASUS DRW-2014S1 Adapter: 0 ID: 0
Read mode : Secure with NO C2, accurate stream, disable cache
Read offset correction : 6
Overread into Lead-In and Lead-Out : No

Used output format : Internal WAV Routines
44.100 Hz; 16 Bit; Stereo

Other options :
Fill up missing offset samples with silence : Yes
Delete leading and trailing silent blocks : No
Installed external ASPI interface


Range status and errors
Selected range
Filename Y:\Музыка\Judas Priest\1993 Metal Works\Judas Priest - Metal Works '73-'93 [Disc 2] [ESCA-5750~1].wav

Peak level 100.0 %
Range quality 99.9 %
CRC 052B07EF
Copy OK

No errors occured

End of status report


Состав:
Различный

[Disc 1] [ESCA-5750~1]
[Disc 2] [ESCA-5750~1]

_________________
Витасу до Даймонда как Алсу до Руссоса | При переразмещении - спрашивать разрешение!!


Top
 Profile  
 
 
PostPosted: 07 Aug 2010 
ыыыы
User avatar
Joined: 17 May 2009
Posts: 952
Lоcаtion: Пушкино, МО
Age: 39
Name: Дмитрий
Ну и по традиции в куе меняем вав на флак :fingal:

_________________
Витасу до Даймонда как Алсу до Руссоса | При переразмещении - спрашивать разрешение!!


Top
 Profile  
 
 
PostPosted: 07 Aug 2010 
Motörheadache
User avatar
Joined: 04 Feb 2010
Posts: 1293
Lоcаtion: Впереди- горы,позади-степи
Age: 44
Name: Александр
Сборка....компиляция.......хм-м... :umnik: :umnik:
Ну всё равно спасибо ! :thanx:

_________________
Eine Nation, Ein Land, Eine Schnaps!

Наш священный долг:защищать Родину,и соблюдать правила личной гигиены....!


Top
 Profile E-mail  
 
 
PostPosted: 07 Aug 2010 
Хиппей (support team)
User avatar
Joined: 30 Jul 2007
Posts: 97115
Lоcаtion: Киев (Kyiv, UA)
Age: 44
Name: Andrey
:thanx:

_________________


Top
 Profile E-mail  
 
 
PostPosted: 07 Aug 2010 
Труъ
User avatar
Joined: 14 Jul 2010
Posts: 104
Lоcаtion: Украина, Донецк
Age: 32
Name: Санёк
Дмитрий, а будет ли Rocka Rolla? Для полноты образа :oops:

_________________
Rock 'N' Roll is the only thing that keeps me from breaking apart (c)


Top
 Profile E-mail  
 
 
PostPosted: 07 Aug 2010 
ыыыы
User avatar
Joined: 17 May 2009
Posts: 952
Lоcаtion: Пушкино, МО
Age: 39
Name: Дмитрий
пока нет

_________________
Витасу до Даймонда как Алсу до Руссоса | При переразмещении - спрашивать разрешение!!


Top
 Profile  
 
Display posts from previous:  Sort by  
Post new topic Reply to topic  [ 6 posts ] 

All times are UTC + 3 hours


Who is online

Users browsing this forum: No registered users and 2 guests


You cannot post new topics in this forum
You cannot reply to topics in this forum
You cannot edit your posts in this forum
You cannot delete your posts in this forum
You cannot post attachments in this forum

Search for:
Яндекс.Метрика
Powered by phpBB © 2000, 2002, 2005, 2007 phpBB Group