\m/ 80's metal \m/

Информационно-аналитический форум "80 см пыли" (In Search We Trust) "У нас никто никуда не спешит"
Железнодорожная биржа - RailAgent
It is currently 14 Dec 2017

All times are UTC + 3 hours

Spoiler
Chat - temporary registration for foreign users (please leave your application here)







Post new topic Reply to topic  [ 7 posts ] 
Author Message
 
PostPosted: 06 Aug 2010 
ыыыы
User avatar
Joined: 17 May 2009
Posts: 952
Lоcаtion: Пушкино, МО
Age: 39
Name: Дмитрий
Image


Жанр: Heavy Metal
Происхождение исполнителя: Англия
Год издания: 1978
Год издания данного носителя: 1988
Страна-производитель носителя: Япония
Аудио кодек: FLAC
Тип рипа: image+.cue
Битрейт аудио: lossless
Продолжительность: 43:29
Рип: Собственный
Лейбл: COLUMBIA/EPIC
Каталоговый номер: 25.8P-5037
Матрица: DP-2553 1 (SONY)

Треклист:
1. Exciter 05:33
2. White Heat, Red Hot 04:19
3. Better By You, Better Than Me (Spooky Tooth Cover) 03:23
4. Stained Class 05:17
5. Invader 04:10
6. Saints In Hell 05:29
7. Savage 03:26
8. Beyond The Realms Of Death 06:51
9. Heroes End 05:00

"Куй"
REM GENRE Metal
REM DATE 1978
REM DISCID 7C0A3109
REM COMMENT "ExactAudioCopy v0.95b4"
PERFORMER "Judas Priest"
TITLE "Stained Class [25.8P-5037]"
FILE "Judas Priest - Stained Class [25.8P-5037].flac" WAVE
TRACK 01 AUDIO
TITLE "Exciter"
PERFORMER "Judas Priest"
INDEX 01 00:00:00
TRACK 02 AUDIO
TITLE "White Heat, Red Hot"
PERFORMER "Judas Priest"
INDEX 01 05:32:55
TRACK 03 AUDIO
TITLE "Better By You Better Than Me"
PERFORMER "Judas Priest"
INDEX 01 09:51:50
TRACK 04 AUDIO
TITLE "Stained Class"
PERFORMER "Judas Priest"
INDEX 01 13:15:00
TRACK 05 AUDIO
TITLE "Invader"
PERFORMER "Judas Priest"
INDEX 01 18:32:25
TRACK 06 AUDIO
TITLE "Saints In Hell"
PERFORMER "Judas Priest"
INDEX 01 22:41:65
TRACK 07 AUDIO
TITLE "Savage"
PERFORMER "Judas Priest"
INDEX 01 28:11:10
TRACK 08 AUDIO
TITLE "Beyond The Realms Of Death"
PERFORMER "Judas Priest"
INDEX 01 31:37:15
TRACK 09 AUDIO
TITLE "Heroes End"
PERFORMER "Judas Priest"
INDEX 01 38:28:47


"Лог"
EAC extraction logfile from 12. January 2010, 23:45 for CD
Judas Priest / Stained Class [25.8P-5037]

Used drive : ASUS DRW-2014S1 Adapter: 0 ID: 0
Read mode : Secure with NO C2, accurate stream, disable cache
Read offset correction : 6
Overread into Lead-In and Lead-Out : No

Used output format : Internal WAV Routines
44.100 Hz; 16 Bit; Stereo

Other options :
Fill up missing offset samples with silence : Yes
Delete leading and trailing silent blocks : No
Installed external ASPI interface


Range status and errors
Selected range
Filename Y:\Музыка\Judas Priest\1978 Stained Class\Judas Priest - Stained Class [25.8P-5037].wav

Peak level 96.3 %
Range quality 100.0 %
CRC B7659B16
Copy OK

No errors occured

End of status report


Состав:
Rob Halford: Vocals
Glenn Tipton: Lead & Rhythm Guitar
K.K. Downing: Lead & Rhythm Guitar
Ian Hill: Bass Guitar
Les Binks: Drums

25.8P-5037

_________________
Витасу до Даймонда как Алсу до Руссоса | При переразмещении - спрашивать разрешение!!


Top
 Profile  
 
 
PostPosted: 06 Aug 2010 
Труъ
User avatar
Joined: 14 Jul 2010
Posts: 104
Lоcаtion: Украина, Донецк
Age: 32
Name: Санёк
Exciter - вот где кроются истоки спид-металла :true:

_________________
Rock 'N' Roll is the only thing that keeps me from breaking apart (c)


Top
 Profile E-mail  
 
 
PostPosted: 06 Aug 2010 
Персональный статус
User avatar
Joined: 11 Apr 2010
Posts: 201
Lоcаtion: Москва (Moskow)
Age: 33
Name: Илья
iezuit

А у Вас случайно на Японках не завалялась песня "Thunder Road". Или она вообще кроме как на современных переизданиях не выходила? :oops:

_________________
Space Aliens Invasion... (our benefactors)

— "Ваш мир для меня бесконечно пуст, ваши идеалы смешны, а ваша демократия — это только власть интриганов. И тогда я понял, что роль слуги человека не удовлетворяет меня, поэтому я решил взять власть в свои руки, чтобы человечество осознало, как оно просчиталось, создав покорную себе куклу"... нейролог и кибернетик Том Новак 1978


Top
 Profile E-mail  
 
 
PostPosted: 06 Aug 2010 
ыыыы
User avatar
Joined: 17 May 2009
Posts: 952
Lоcаtion: Пушкино, МО
Age: 39
Name: Дмитрий
Не видел такой :pardon: Это каких на годов?

_________________
Витасу до Даймонда как Алсу до Руссоса | При переразмещении - спрашивать разрешение!!


Top
 Profile  
 
 
PostPosted: 06 Aug 2010 
Труъ
User avatar
Joined: 14 Jul 2010
Posts: 104
Lоcаtion: Украина, Донецк
Age: 32
Name: Санёк
Oxenkiller, увы, она действительно бывает только в том варианте, в котором мы все ее знаем. Разрази меня понос если это не так.

iezuit, она идет бонусом к одному из ремастеров 2001 года. А изначально 1988 год если не ошибаюсь. В Ram it down не вошла почему-то.

_________________
Rock 'N' Roll is the only thing that keeps me from breaking apart (c)


Top
 Profile E-mail  
 
 
PostPosted: 07 Aug 2010 
дядя Миша
User avatar
Joined: 17 Oct 2008
Posts: 2801
Lоcаtion: USSR
Age: 55
Name: Khy
спасибо , Дмитрий! Тож его не очень люблю , но обязательно прослушаю !


Top
 Profile  
 
 
PostPosted: 08 Aug 2010 
Хиппей (support team)
User avatar
Joined: 30 Jul 2007
Posts: 97011
Lоcаtion: Киев (Kyiv, UA)
Age: 44
Name: Andrey
5 хитов, как минимум :true:

_________________


Top
 Profile E-mail  
 
Display posts from previous:  Sort by  
Post new topic Reply to topic  [ 7 posts ] 

All times are UTC + 3 hours


Who is online

Users browsing this forum: No registered users and 2 guests


You cannot post new topics in this forum
You cannot reply to topics in this forum
You cannot edit your posts in this forum
You cannot delete your posts in this forum
You cannot post attachments in this forum

Search for:
Яндекс.Метрика
Powered by phpBB © 2000, 2002, 2005, 2007 phpBB Group