\m/ 80's metal \m/

Информационно-аналитический форум "80 см пыли" (In Search We Trust) "У нас никто никуда не спешит"
Железнодорожная биржа - RailAgent
It is currently 16 Dec 2017

All times are UTC + 3 hours

Spoiler
Chat - temporary registration for foreign users (please leave your application here)







Post new topic Reply to topic  [ 28 posts ]  Go to page 1, 2  Next
Author Message
 
PostPosted: 14 Jul 2010 
ыыыы
User avatar
Joined: 17 May 2009
Posts: 952
Lоcаtion: Пушкино, МО
Age: 39
Name: Дмитрий
Image


Жанр: Heavy Metal
Происхождение исполнителя: Англия
Год издания: 1987
Год издания данного носителя: 1987
Страна-производитель носителя: Япония
Аудио кодек: FLAC
Тип рипа: image+.cue
Битрейт аудио: lossless
Продолжительность: 74:01
Рип: Собственный
Лейбл: EPIC/CBS-SONY
Каталоговый номер: 42.8P-215
Матрица: 42.8P-215 11 +++++ (SONY)

Треклист:
1. Out in the Cold 06:33
2. Heading Out to the Highway 04:30
3. Metal Gods 04:37
4. Breaking the Law 02:22
5. Love Bites 05:20
6. Some Heads Are Gonna Roll 04:04
7. The Sentinel 05:11
8. Private Property 04:12
9. Rock You All Around the World 03:46
10. Electric Eye 04:29
11. Turbo Lover 05:44
12. Freewheel Burning 04:57
13. Parental Guidance 04:13
14. Living After Midnight 04:42
15. Shout-Oh Yeah! 01:30
15. You've Got Another Thing Comin' 07:53

"Куй"
REM GENRE "Heavy Metal"
REM DATE 1987
REM DISCID EB115910
REM COMMENT "ExactAudioCopy v0.99pb5"
PERFORMER "Judas Priest"
TITLE "Priest...live! [42.8P-215]"
FILE "Judas Priest - Priest...live! [42.8P-215].flac" WAVE
TRACK 01 AUDIO
TITLE "Out In The Cold"
PERFORMER "Judas Priest"
INDEX 01 00:00:00
TRACK 02 AUDIO
TITLE "Heading Out To The Highway"
PERFORMER "Judas Priest"
INDEX 00 06:32:12
INDEX 01 06:32:62
TRACK 03 AUDIO
TITLE "Metal Gods"
PERFORMER "Judas Priest"
INDEX 00 11:00:60
INDEX 01 11:02:62
TRACK 04 AUDIO
TITLE "Breaking The Law"
PERFORMER "Judas Priest"
INDEX 00 15:01:17
INDEX 01 15:39:45
TRACK 05 AUDIO
TITLE "Love Bites"
PERFORMER "Judas Priest"
INDEX 00 17:53:50
INDEX 01 18:01:25
TRACK 06 AUDIO
TITLE "Some Heads Are Gonna Roll"
PERFORMER "Judas Priest"
INDEX 00 23:15:45
INDEX 01 23:21:25
TRACK 07 AUDIO
TITLE "The Sentinel"
PERFORMER "Judas Priest"
INDEX 00 27:25:07
INDEX 01 27:25:62
TRACK 08 AUDIO
TITLE "Private Property"
PERFORMER "Judas Priest"
INDEX 00 32:17:00
INDEX 01 32:36:47
TRACK 09 AUDIO
TITLE "Rock You All Around The World"
PERFORMER "Judas Priest"
INDEX 00 36:45:32
INDEX 01 36:48:17
TRACK 10 AUDIO
TITLE "Electric Eye"
PERFORMER "Judas Priest"
INDEX 00 40:31:57
INDEX 01 40:33:67
TRACK 11 AUDIO
TITLE "Turbo Lover"
PERFORMER "Judas Priest"
INDEX 00 44:40:37
INDEX 01 45:03:05
TRACK 12 AUDIO
TITLE "Freewheel Burning"
PERFORMER "Judas Priest"
INDEX 00 50:42:40
INDEX 01 50:46:62
TRACK 13 AUDIO
TITLE "Parental Guidance"
PERFORMER "Judas Priest"
INDEX 00 55:30:55
INDEX 01 55:43:25
TRACK 14 AUDIO
TITLE "Living After Midnight"
PERFORMER "Judas Priest"
INDEX 00 59:43:60
INDEX 01 59:56:25
TRACK 15 AUDIO
TITLE "Shout-Oh Yeah!"
PERFORMER "Judas Priest"
INDEX 00 64:22:07
INDEX 01 64:38:37
TRACK 16 AUDIO
TITLE "You've Got Another Thing Comin'"
PERFORMER "Judas Priest"
INDEX 01 66:08:02


"Лог"
Judas Priest / Priest...live! [42.8P-215]

Дисковод: MATSHITADVD-RAM UJ-850S Adapter: 0 ID: 0

Режим чтения : Достоверность
Использование точного потока : Да
Отключение кэша аудио : Да
Использование указателей C2 : Нет

Коррекция смещения при чтении : 102
Способность читать области Lead-in и Lead-out : Нет
Заполнение пропущенных сэмплов тишиной : Да
Удаление блоков с тишиной в начале и конце : Нет
При вычислениях CRC использовались нулевые сэмплы : Да
Интерфейс : Установленный внешний ASPI-интерфейс

Выходной формат : Пользовательский кодировщик
Выбранный битрейт : 128 kBit/s
Качество : Высокий
Добавление ID3-тэга : Нет
Утилита сжатия : C:\Program Files\Exact Audio Copy\Flac\flac.exe
Дополнительные параметры : -6 -V -T "artist=%a" -T "title=%t" -T "album=%g" -T "date=%y" -T "tracknumber=%n" -T "genre=%m" -T "comment=EAC 0.99beta5 / FLAC 1.1.0 q6" %s


TOC извлечённого CD

Трек | Старт | Длительность | Начальный сектор | Конечный сектор
---------------------------------------------------------------------
1 | 0:00.00 | 6:32.62 | 0 | 29461
2 | 6:32.62 | 4:30.00 | 29462 | 49711
3 | 11:02.62 | 4:36.58 | 49712 | 70469
4 | 15:39.45 | 2:21.55 | 70470 | 81099
5 | 18:01.25 | 5:20.00 | 81100 | 105099
6 | 23:21.25 | 4:04.37 | 105100 | 123436
7 | 27:25.62 | 5:10.60 | 123437 | 146746
8 | 32:36.47 | 4:11.45 | 146747 | 165616
9 | 36:48.17 | 3:45.50 | 165617 | 182541
10 | 40:33.67 | 4:29.13 | 182542 | 202729
11 | 45:03.05 | 5:43.57 | 202730 | 228511
12 | 50:46.62 | 4:56.38 | 228512 | 250749
13 | 55:43.25 | 4:13.00 | 250750 | 269724
14 | 59:56.25 | 4:42.12 | 269725 | 290886
15 | 64:38.37 | 1:29.40 | 290887 | 297601
16 | 66:08.02 | 7:53.13 | 297602 | 333089


Характеристики диапазона извлечения и сообщения об ошибках

Выбранный диапазон

Имя файла Y:\Музыка\Judas Priest\1987 Priest...Live !\Judas Priest - Priest...live! [42.8P-215].wav

Пиковый уровень 100.0 %
Качество диапазона 100.0 %
CRC копии F95F9656
Копирование... OK

Ошибок не произошло


AccurateRip: сводка

Трек 1 точное извлечение (доверие 8) [FA8796B1]
Трек 2 точное извлечение (доверие 8) [46B29828]
Трек 3 точное извлечение (доверие 8) [0596524F]
Трек 4 точное извлечение (доверие 8) [CE61AFC4]
Трек 5 точное извлечение (доверие 8) [C599E77C]
Трек 6 точное извлечение (доверие 8) [433D1FBD]
Трек 7 точное извлечение (доверие 8) [843DD581]
Трек 8 точное извлечение (доверие 8) [AEAEBE31]
Трек 9 точное извлечение (доверие 8) [9491193A]
Трек 10 точное извлечение (доверие 8) [7B1290A1]
Трек 11 точное извлечение (доверие 8) [95CC24B5]
Трек 12 точное извлечение (доверие 8) [C9A6BE78]
Трек 13 точное извлечение (доверие 8) [C30B81DA]
Трек 14 точное извлечение (доверие 8) [17B49BE2]
Трек 15 точное извлечение (доверие 8) [B987ACE0]
Трек 16 точное извлечение (доверие 8) [29A2FC62]

Все треки извлечены точно

Конец отчёта


Состав:
Rob Halford: Vocals
Glenn Tipton: Lead & Rhythm Guitar
K.K. Downing: Lead & Rhythm Guitar
Ian Hill: Bass Guitar
Dave Holland: Drums

42.8P-215
Photo


#######################################################

Image


Жанр: Heavy Metal
Происхождение исполнителя: Англия
Год издания: 1987
Год издания данного носителя: 2004
Страна-производитель носителя: Япония
Аудио кодек: FLAC
Тип рипа: image+.cue
Битрейт аудио: lossless
Продолжительность: 38:35+56:58
Рип: Собственный
Лейбл: EPIC/SONY
Каталоговый номер: MHCP 392~3

Диск1
Матрица: PUS-3450 3 (SONY)

Треклист:
1. Out in the Cold 06:51
2. Heading Out to the Highway 04:53
3. Metal Gods 04:11
4. Breaking the Law 02:42
5. Love Bites 05:27
6. Some Heads Are Gonna Roll 04:23
7. The Sentinel 05:14
8. Private Property 04:52

"Куй"
REM GENRE "Heavy Metal"
REM DATE 1987
REM DISCID 53090A08
REM COMMENT "ExactAudioCopy v0.99pb5"
PERFORMER "Judas Priest"
TITLE "Priest...Live ! (Disc 1) [MHCP 392~3]"
FILE "Judas Priest - Priest...Live ! (Disc 1) [MHCP 392~3].flac" WAVE
TRACK 01 AUDIO
TITLE "Out In The Cold"
PERFORMER "Judas Priest"
INDEX 01 00:00:00
TRACK 02 AUDIO
TITLE "Heading Out To The Highway"
PERFORMER "Judas Priest"
INDEX 01 06:51:17
TRACK 03 AUDIO
TITLE "Metal Gods"
PERFORMER "Judas Priest"
INDEX 01 11:44:45
TRACK 04 AUDIO
TITLE "Breaking The Law"
PERFORMER "Judas Priest"
INDEX 01 15:56:07
TRACK 05 AUDIO
TITLE "Love Bites"
PERFORMER "Judas Priest"
INDEX 01 18:38:42
TRACK 06 AUDIO
TITLE "Some Heads Are Gonna Roll"
PERFORMER "Judas Priest"
INDEX 01 24:05:70
TRACK 07 AUDIO
TITLE "The Sentinel"
PERFORMER "Judas Priest"
INDEX 01 28:29:25
TRACK 08 AUDIO
TITLE "Private Property"
PERFORMER "Judas Priest"
INDEX 01 33:42:70


"Лог"
Exact Audio Copy V0.99 prebeta 5 from 4. May 2009

Отчёт EAC об извлечении, выполненном 14. июля 2010, 21:43

Judas Priest / Priest...Live ! (Disc 1) [MHCP 392~3]

Дисковод: MATSHITADVD-RAM UJ-850S Adapter: 0 ID: 0

Режим чтения : Достоверность
Использование точного потока : Да
Отключение кэша аудио : Да
Использование указателей C2 : Нет

Коррекция смещения при чтении : 102
Способность читать области Lead-in и Lead-out : Нет
Заполнение пропущенных сэмплов тишиной : Да
Удаление блоков с тишиной в начале и конце : Нет
При вычислениях CRC использовались нулевые сэмплы : Да
Интерфейс : Установленный внешний ASPI-интерфейс

Выходной формат : Пользовательский кодировщик
Выбранный битрейт : 128 kBit/s
Качество : Высокий
Добавление ID3-тэга : Нет
Утилита сжатия : C:\Program Files\Exact Audio Copy\Flac\flac.exe
Дополнительные параметры : -6 -V -T "artist=%a" -T "title=%t" -T "album=%g" -T "date=%y" -T "tracknumber=%n" -T "genre=%m" -T "comment=EAC 0.99beta5 / FLAC 1.1.0 q6" %s


TOC извлечённого CD

Трек | Старт | Длительность | Начальный сектор | Конечный сектор
---------------------------------------------------------------------
1 | 0:00.00 | 6:51.17 | 0 | 30841
2 | 6:51.17 | 4:53.28 | 30842 | 52844
3 | 11:44.45 | 4:11.37 | 52845 | 71706
4 | 15:56.07 | 2:42.35 | 71707 | 83891
5 | 18:38.42 | 5:27.28 | 83892 | 108444
6 | 24:05.70 | 4:23.30 | 108445 | 128199
7 | 28:29.25 | 5:13.45 | 128200 | 151719
8 | 33:42.70 | 4:52.00 | 151720 | 173619


Характеристики диапазона извлечения и сообщения об ошибках

Выбранный диапазон

Имя файла Y:\Музыка\Judas Priest\1987 Priest...Live !\Judas Priest - Priest...Live ! (Disc 1) [MHCP 392~3].wav

Пиковый уровень 96.1 %
Качество диапазона 100.0 %
CRC копии 0F541087
Копирование... OK

Ошибок не произошло


AccurateRip: сводка

Трек 1 нет в базе данных
Трек 2 нет в базе данных
Трек 3 нет в базе данных
Трек 4 нет в базе данных
Трек 5 нет в базе данных
Трек 6 нет в базе данных
Трек 7 нет в базе данных
Трек 8 нет в базе данных

Ни одного трека нет в базе AccurateRip

Конец отчёта


Диск2
Матрица: PUS-3451 2 (SONY)

Треклист:
1. Rock You All Around the World 04:42
2. Electric Eye 04:20
3. Turbo Lover 05:53
4. Freewheel Burning 05:01
5. Parental Guidance 04:11
6. Living After Midnight 07:24
7. You've Got Another Thing Comin' 08:06
8. Screaming For Vengeance [Bonus Track] 05:55
9. Rock Hard, Ride Free [Bonus Track] 06:42
10. Hell Bent For Leather [Bonus Track] 04:44

"Куй"
REM GENRE "Heavy Metal"
REM DATE 1987
REM DISCID 990D590A
REM COMMENT "ExactAudioCopy v0.99pb5"
PERFORMER "Judas Priest"
TITLE "Priest...Live ! (Disc 2) [MHCP 392~3]"
FILE "Judas Priest - Priest...Live ! (Disc 2) [MHCP 392~3].flac" WAVE
TRACK 01 AUDIO
TITLE "Rock You All Around The World"
PERFORMER "Judas Priest"
INDEX 01 00:00:00
TRACK 02 AUDIO
TITLE "Electric Eye"
PERFORMER "Judas Priest"
INDEX 01 04:41:72
TRACK 03 AUDIO
TITLE "Turbo Lover"
PERFORMER "Judas Priest"
INDEX 01 09:01:62
TRACK 04 AUDIO
TITLE "Freewheel Burning"
PERFORMER "Judas Priest"
INDEX 01 14:54:65
TRACK 05 AUDIO
TITLE "Parental Guidance"
PERFORMER "Judas Priest"
INDEX 01 19:55:65
TRACK 06 AUDIO
TITLE "Living After Midnight"
PERFORMER "Judas Priest"
INDEX 01 24:06:65
TRACK 07 AUDIO
TITLE "You've Got Another Thing Comin'"
PERFORMER "Judas Priest"
INDEX 01 31:30:67
TRACK 08 AUDIO
TITLE "Screaming For Vengeance [Bonus Track]"
PERFORMER "Judas Priest"
INDEX 01 39:36:32
TRACK 09 AUDIO
TITLE "Rock Hard, Ride Free [Bonus Track]"
PERFORMER "Judas Priest"
INDEX 01 45:31:50
TRACK 10 AUDIO
TITLE "Hell Bent For Leather [Bonus Track]"
PERFORMER "Judas Priest"
INDEX 01 52:14:10


"Лог"
Exact Audio Copy V0.99 prebeta 5 from 4. May 2009

Отчёт EAC об извлечении, выполненном 14. июля 2010, 22:41

Judas Priest / Priest...Live ! (Disc 2) [MHCP 392~3]

Дисковод: MATSHITADVD-RAM UJ-850S Adapter: 0 ID: 0

Режим чтения : Достоверность
Использование точного потока : Да
Отключение кэша аудио : Да
Использование указателей C2 : Нет

Коррекция смещения при чтении : 102
Способность читать области Lead-in и Lead-out : Нет
Заполнение пропущенных сэмплов тишиной : Да
Удаление блоков с тишиной в начале и конце : Нет
При вычислениях CRC использовались нулевые сэмплы : Да
Интерфейс : Установленный внешний ASPI-интерфейс

Выходной формат : Пользовательский кодировщик
Выбранный битрейт : 128 kBit/s
Качество : Высокий
Добавление ID3-тэга : Нет
Утилита сжатия : C:\Program Files\Exact Audio Copy\Flac\flac.exe
Дополнительные параметры : -6 -V -T "artist=%a" -T "title=%t" -T "album=%g" -T "date=%y" -T "tracknumber=%n" -T "genre=%m" -T "comment=EAC 0.99beta5 / FLAC 1.1.0 q6" %s


TOC извлечённого CD

Трек | Старт | Длительность | Начальный сектор | Конечный сектор
---------------------------------------------------------------------
1 | 0:00.00 | 4:41.72 | 0 | 21146
2 | 4:41.72 | 4:19.65 | 21147 | 40636
3 | 9:01.62 | 5:53.03 | 40637 | 67114
4 | 14:54.65 | 5:01.00 | 67115 | 89689
5 | 19:55.65 | 4:11.00 | 89690 | 108514
6 | 24:06.65 | 7:24.02 | 108515 | 141816
7 | 31:30.67 | 8:05.40 | 141817 | 178231
8 | 39:36.32 | 5:55.18 | 178232 | 204874
9 | 45:31.50 | 6:42.35 | 204875 | 235059
10 | 52:14.10 | 4:43.60 | 235060 | 256344


Характеристики диапазона извлечения и сообщения об ошибках

Выбранный диапазон

Имя файла Y:\Музыка\Judas Priest\1987 Priest...Live !\Judas Priest - Priest...Live ! (Disc 2) [MHCP 392~3].wav

Пиковый уровень 98.7 %
Качество диапазона 99.9 %
CRC копии 937E0EF7
Копирование... OK

Ошибок не произошло


AccurateRip: сводка

Трек 1 нет в базе данных
Трек 2 нет в базе данных
Трек 3 нет в базе данных
Трек 4 нет в базе данных
Трек 5 нет в базе данных
Трек 6 нет в базе данных
Трек 7 нет в базе данных
Трек 8 нет в базе данных
Трек 9 нет в базе данных
Трек 10 нет в базе данных

Ни одного трека нет в базе AccurateRip

Конец отчёта


Состав:
Думаю, тот же

MHCP 392~3

_________________
Витасу до Даймонда как Алсу до Руссоса | При переразмещении - спрашивать разрешение!!


Last edited by iezuit on 15 Jul 2010, edited 5 times in total.

Top
 Profile  
 
 
PostPosted: 14 Jul 2010 
ыыыы
User avatar
Joined: 17 May 2009
Posts: 952
Lоcаtion: Пушкино, МО
Age: 39
Name: Дмитрий
Перенёс отсюда viewtopic.php?f=65&t=6229&start=20
Скоро добавлю переиздание с бонусами

_________________
Витасу до Даймонда как Алсу до Руссоса | При переразмещении - спрашивать разрешение!!


Top
 Profile  
 
 
PostPosted: 14 Jul 2010 
Хиппей (support team)
User avatar
Joined: 30 Jul 2007
Posts: 97116
Lоcаtion: Киев (Kyiv, UA)
Age: 44
Name: Andrey
:true: :thanx:

_________________


Top
 Profile E-mail  
 
 
PostPosted: 14 Jul 2010 
Персональный статус
Joined: 14 May 2010
Posts: 236
Age: 36
Name: Денис
iezuit wrote:
Перенёс отсюда viewtopic.php?f=65&t=6229&start=20
ну и правильно.

ещё бы это отдельной темкой, а?


Top
 Profile  
 
 
PostPosted: 14 Jul 2010 
ыыыы
User avatar
Joined: 17 May 2009
Posts: 952
Lоcаtion: Пушкино, МО
Age: 39
Name: Дмитрий
успеется

_________________
Витасу до Даймонда как Алсу до Руссоса | При переразмещении - спрашивать разрешение!!


Top
 Profile  
 
 
PostPosted: 14 Jul 2010 
парень в очёчкXаX!
User avatar
Joined: 15 Aug 2007
Posts: 2353
Lоcаtion: UK'раина, г. ЛондАн Би-Би-Си
Age: 47
Name: Сергей
шедевр по теме ПРИСТОВ!
а видео когда смотрю, то аж мурахи по спине бегают, адреналин анриал!!!!!!!
вот ипонческого нету в коллекуции :dance:


Top
 Profile  
 
 
PostPosted: 14 Jul 2010 
А может смените мне статус?..
User avatar
Joined: 01 Jun 2008
Posts: 559
Lоcаtion: Россия
Age: 42
Name: Вадик
Турбо - классный альбом, самый лучший.


Top
 Profile  
 
 
PostPosted: 14 Jul 2010 
ыыыы
User avatar
Joined: 17 May 2009
Posts: 952
Lоcаtion: Пушкино, МО
Age: 39
Name: Дмитрий
Выкладывал на рутракере первоиз

_________________
Витасу до Даймонда как Алсу до Руссоса | При переразмещении - спрашивать разрешение!!


Top
 Profile  
 
 
PostPosted: 15 Jul 2010 
Хиппей (support team)
User avatar
Joined: 30 Jul 2007
Posts: 97116
Lоcаtion: Киев (Kyiv, UA)
Age: 44
Name: Andrey
rats wrote:
Турбо - классный альбом, самый лучший.

:scratch:

_________________


Top
 Profile E-mail  
 
 
PostPosted: 15 Jul 2010 
ыыыы
User avatar
Joined: 17 May 2009
Posts: 952
Lоcаtion: Пушкино, МО
Age: 39
Name: Дмитрий
Мне больше 84 нравится. А на 86 есть какие-то скользкие песни. Немного не пристовые они, а трендовые. Хорошо, что из них не получилось второго Доккена)))
Ремастер выложен в теме топика. Имеется 3 бонуса, весьма гармонично сочетающихся с основным релизом :dance:

_________________
Витасу до Даймонда как Алсу до Руссоса | При переразмещении - спрашивать разрешение!!


Top
 Profile  
 
 
PostPosted: 15 Jul 2010 
Хиппей (support team)
User avatar
Joined: 30 Jul 2007
Posts: 97116
Lоcаtion: Киев (Kyiv, UA)
Age: 44
Name: Andrey
iezuit wrote:
Ремастер выложен в теме топика

:thanx:

_________________


Top
 Profile E-mail  
 
 
PostPosted: 15 Jul 2010 
Труъ
User avatar
Joined: 14 Jul 2010
Posts: 104
Lоcаtion: Украина, Донецк
Age: 32
Name: Санёк
Отличный диск, в свое время был мною запилен да дыр. Однако есть много нарицаний у публики по поводу его "коцертности". Драйву тем не менее зоть отбавляй!!!

_________________
Rock 'N' Roll is the only thing that keeps me from breaking apart (c)


Top
 Profile E-mail  
 
 
PostPosted: 15 Jul 2010 
ыыыы
User avatar
Joined: 17 May 2009
Posts: 952
Lоcаtion: Пушкино, МО
Age: 39
Name: Дмитрий
а какие нарицания???

_________________
Витасу до Даймонда как Алсу до Руссоса | При переразмещении - спрашивать разрешение!!


Top
 Profile  
 
 
PostPosted: 15 Jul 2010 
Хиппей (support team)
User avatar
Joined: 30 Jul 2007
Posts: 97116
Lоcаtion: Киев (Kyiv, UA)
Age: 44
Name: Andrey
Да никаких, кроме того, что Роб чуть исправил вокальные партии :crazy:

_________________


Top
 Profile E-mail  
 
 
PostPosted: 15 Jul 2010 
ыыыы
User avatar
Joined: 17 May 2009
Posts: 952
Lоcаtion: Пушкино, МО
Age: 39
Name: Дмитрий
ааа!!! даже и не знал )))

_________________
Витасу до Даймонда как Алсу до Руссоса | При переразмещении - спрашивать разрешение!!


Top
 Profile  
 
 
PostPosted: 15 Jul 2010 
Труъ
User avatar
Joined: 14 Jul 2010
Posts: 104
Lоcаtion: Украина, Донецк
Age: 32
Name: Санёк
Звучит чисто и вылизано бо блеска, особенно вокал и гитарные соло. Но это скорее плюс чем минус. Почему то вспомнились коцертники Iron Maiden 1992-1993 годов, где по ушам порою режет лажа Дикинсона.

_________________
Rock 'N' Roll is the only thing that keeps me from breaking apart (c)


Top
 Profile E-mail  
 
 
PostPosted: 15 Jul 2010 
Хиппей (support team)
User avatar
Joined: 30 Jul 2007
Posts: 97116
Lоcаtion: Киев (Kyiv, UA)
Age: 44
Name: Andrey
Мэйдены, да и вообще все группы, свои официальные записи по-любому в студии обрабатывали. Кто звук, кто отдельные трэки и вокал. Без этого никак.
Это только в бутлегах всё как есть и было на концертах. И то, если с самим бутлегом никто ничего не нахимичил, как вот было с Пристами в Осаке :crazy:

_________________


Top
 Profile E-mail  
 
 
PostPosted: 20 Jul 2010 
Motörheadache
User avatar
Joined: 04 Feb 2010
Posts: 1293
Lоcаtion: Впереди- горы,позади-степи
Age: 44
Name: Александр
rats wrote:
Турбо - классный альбом, самый лучший

:nea:
iezuit wrote:
Мне больше 84 нравится

:true: :true: :true: :true:

_________________
Eine Nation, Ein Land, Eine Schnaps!

Наш священный долг:защищать Родину,и соблюдать правила личной гигиены....!


Top
 Profile E-mail  
 
 
PostPosted: 20 Jul 2010 
А может смените мне статус?..
User avatar
Joined: 01 Jun 2008
Posts: 559
Lоcаtion: Россия
Age: 42
Name: Вадик
iezuit wrote:
Мне больше 84 нравится.

Году так в 86-87, когда уже был знаком с творчеством Accept и Helloween, как-то попалась на кассете запись альбома некой группы. Звук там был попсовый, соло-гитары какие-то незатейливые да и песни показались уж совсем простыми, как три советские копейки. После Удо или Брайна Джонсона - вокалиста с этой записи просто язык не поворачивался назвать металлическим певцом. В общем, запись этой некой группы воспринялась дешевой копией Хэллоуина. Позже, с удивлением узнал, что это и есть альбом Judas Priest 1984. Извините, но после Balls To The Wall или Ride The Lighting пристовский альбом 1984 - какое-то карикатурное хэви.
И потом, в коммерческом плане Turbo был более успешней своего предшественника. Мне тем и нравится Turbo, что на нем группа уже не позиционируются как типа ортодоксальные хэви-метализты-защитники веры!!! И песни на Turbo позитивные и душевные, без всякой воды.


Top
 Profile  
 
 
PostPosted: 20 Jul 2010 
ыыыы
User avatar
Joined: 17 May 2009
Posts: 952
Lоcаtion: Пушкино, МО
Age: 39
Name: Дмитрий
ну вот как-то под 84 год навоз таскать на огород было легче :nunu:

_________________
Витасу до Даймонда как Алсу до Руссоса | При переразмещении - спрашивать разрешение!!


Top
 Profile  
 
Display posts from previous:  Sort by  
Post new topic Reply to topic  [ 28 posts ]  Go to page 1, 2  Next

All times are UTC + 3 hours


Who is online

Users browsing this forum: No registered users and 1 guest


You cannot post new topics in this forum
You cannot reply to topics in this forum
You cannot edit your posts in this forum
You cannot delete your posts in this forum
You cannot post attachments in this forum

Search for:
Яндекс.Метрика
Powered by phpBB © 2000, 2002, 2005, 2007 phpBB Group