\m/ 80's metal \m/

Информационно-аналитический форум "80 см пыли" (In Search We Trust) "У нас никто никуда не спешит"
Железнодорожная биржа - RailAgent
It is currently 14 Dec 2017

All times are UTC + 3 hours

Spoiler
Chat - temporary registration for foreign users (please leave your application here)







Post new topic Reply to topic  [ 1 post ] 
Author Message
 
PostPosted: 20 Apr 2010 
ыыыы
User avatar
Joined: 17 May 2009
Posts: 952
Lоcаtion: Пушкино, МО
Age: 39
Name: Дмитрий
Image


Жанр: Hard Rock/Shred
Происхождение исполнителя: США
Год издания: 1987
Год издания данного носителя: 1988
Страна-производитель носителя: Япония
Аудио кодек: FLAC
Тип рипа: image+.cue
Битрейт аудио: lossless
Продолжительность: 37:44
Рип: Собственный
Лейбл: RELATIVITY/CBS-SONY
Каталоговый номер: 25DP 5026
Матрица: DPA-5783 (SONY)

Треклист:
1. Surfing with the Alien 04:26
2. Ice 9 04:00
3. Crushing Day 05:14
4. Always with Me, Always with You 03:22
5. Satch Boogie 03:14
6. Hill of the Skull 01:49
7. Circles 03:28
8. Lords of Karma 04:48
9. Midnight 01:42
10. Echo 05:40

"Куй"
REM GENRE Rock
REM DATE 1987
REM DISCID 7A08D80A
REM COMMENT "ExactAudioCopy v0.99pb5"
PERFORMER "Joe Satriani"
TITLE "Surfing With The Alien [25DP 5026]"
FILE "Joe Satriani - Surfing With The Alien [25DP 5026].flac" WAVE
TRACK 01 AUDIO
TITLE "Surfing With The Alien"
PERFORMER "Joe Satriani"
INDEX 01 00:00:00
TRACK 02 AUDIO
TITLE "Ice 9"
PERFORMER "Joe Satriani"
INDEX 01 04:26:00
TRACK 03 AUDIO
TITLE "Crushing Day"
PERFORMER "Joe Satriani"
INDEX 01 08:25:62
TRACK 04 AUDIO
TITLE "Always With Me,Always With You"
PERFORMER "Joe Satriani"
INDEX 01 13:40:00
TRACK 05 AUDIO
TITLE "Satch Boogie"
PERFORMER "Joe Satriani"
INDEX 01 17:02:25
TRACK 06 AUDIO
TITLE "Hill Of The Skull"
PERFORMER "Joe Satriani"
INDEX 00 20:15:30
INDEX 01 20:16:37
TRACK 07 AUDIO
TITLE "Circles"
PERFORMER "Joe Satriani"
INDEX 01 22:05:45
TRACK 08 AUDIO
TITLE "Lords Of Karma"
PERFORMER "Joe Satriani"
INDEX 01 25:34:00
TRACK 09 AUDIO
TITLE "Midnight"
PERFORMER "Joe Satriani"
INDEX 01 30:22:20
TRACK 10 AUDIO
TITLE "Echo"
PERFORMER "Joe Satriani"
INDEX 01 32:04:17


"Лог"
Exact Audio Copy V0.99 prebeta 5 from 4. May 2009

EAC extraction logfile from 20. April 2010, 11:01

Joe Satriani / Surfing With The Alien [25DP 5026]

Used drive : Optiarc DVD RW AD-7200A Adapter: 0 ID: 0

Read mode : Secure
Utilize accurate stream : Yes
Defeat audio cache : Yes
Make use of C2 pointers : No

Read offset correction : 48
Overread into Lead-In and Lead-Out : No
Fill up missing offset samples with silence : Yes
Delete leading and trailing silent blocks : No
Null samples used in CRC calculations : Yes
Used interface : Native Win32 interface for Win NT & 2000

Used output format : User Defined Encoder
Selected bitrate : 128 kBit/s
Quality : High
Add ID3 tag : No
Command line compressor : C:\Program Files\Exact Audio Copy\Flac\flac.exe
Additional command line options : -8 -V -T "artist=%a" -T "title=%t" -T "album=%g" -T "date=%y" -T "tracknumber=%n" -T "genre=%m" -T "comment=EAC 0.9beta4 / FLAC 1.1.0 q6" %s


TOC of the extracted CD

Track | Start | Length | Start sector | End sector
---------------------------------------------------------
1 | 0:00.00 | 4:26.00 | 0 | 19949
2 | 4:26.00 | 3:59.62 | 19950 | 37936
3 | 8:25.62 | 5:14.13 | 37937 | 61499
4 | 13:40.00 | 3:22.25 | 61500 | 76674
5 | 17:02.25 | 3:14.12 | 76675 | 91236
6 | 20:16.37 | 1:49.08 | 91237 | 99419
7 | 22:05.45 | 3:28.30 | 99420 | 115049
8 | 25:34.00 | 4:48.20 | 115050 | 136669
9 | 30:22.20 | 1:41.72 | 136670 | 144316
10 | 32:04.17 | 5:40.08 | 144317 | 169824


Range status and errors

Selected range

Filename Y:\Музыка\Joe Satriani\1987 Surfing With The Alien\Joe Satriani - Surfing With The Alien [25DP 5026].wav

Peak level 100.0 %
Range quality 99.9 %
Copy CRC 8FE77DFA
Copy OK

No errors occurred

End of status report


Состав:
Joe Satriani: All guitars, bass, keyboards, percussion, drum programming
Bongo Bob Smith: Drum programming, sound design, percussion
Jeff Campitelli: Drums, percussion
John Cuniberti: Percussion
Jeff Kreegar: Pre-production programming and sound design

Народ

_________________
Витасу до Даймонда как Алсу до Руссоса | При переразмещении - спрашивать разрешение!!


Top
 Profile  
 
Display posts from previous:  Sort by  
Post new topic Reply to topic  [ 1 post ] 

All times are UTC + 3 hours


Who is online

Users browsing this forum: No registered users and 1 guest


You cannot post new topics in this forum
You cannot reply to topics in this forum
You cannot edit your posts in this forum
You cannot delete your posts in this forum
You cannot post attachments in this forum

Search for:
Яндекс.Метрика
Powered by phpBB © 2000, 2002, 2005, 2007 phpBB Group