\m/ 80's metal \m/

Информационно-аналитический форум "80 см пыли" (In Search We Trust) "У нас никто никуда не спешит"
Железнодорожная биржа - RailAgent
It is currently 16 Dec 2017

All times are UTC + 3 hours

Spoiler
Chat - temporary registration for foreign users (please leave your application here)







Post new topic Reply to topic  [ 113 posts ]  Go to page Previous  1, 2, 3, 4, 5, 6
Author Message
 
PostPosted: 20 Nov 2009 
А может смените мне статус?..
Joined: 11 Nov 2009
Posts: 596
Name: Pasq
> Осталось найти: | Still looking:
James Byrd's Atlantis Rising - CRIMES OF VIRTUOSITY of the 2005 Special Bonus Tracks Edition

James Byrd (Fifth Angel) Discography

Image

http://www.metal-archives.com/band.php?id=5370

:smile: :good:


Top
 Profile E-mail  
 
 
PostPosted: 08 Dec 2009 
А может смените мне статус?..
Joined: 11 Nov 2009
Posts: 596
Name: Pasq
ok :thanx:


Top
 Profile E-mail  
 
 
PostPosted: 22 Dec 2009 
хард н хэвщик (support team)
User avatar
Joined: 02 Jun 2008
Posts: 16879
Lоcаtion: Н.Новгород
Age: 30
Name: Артем
кто просил лося - ку ку :oops:


Top
 Profile  
 
 
PostPosted: 11 Aug 2012 
Хиппей (support team)
User avatar
Joined: 30 Jul 2007
Posts: 97115
Lоcаtion: Киев (Kyiv, UA)
Age: 44
Name: Andrey
Реапните, плиз альбомчик.

_________________


Top
 Profile E-mail  
 
 
PostPosted: 11 Aug 2012 
Хиппей (support team)
User avatar
Joined: 30 Jul 2007
Posts: 97115
Lоcаtion: Киев (Kyiv, UA)
Age: 44
Name: Andrey
http://rutracker.org/forum/viewtopic.php?t=2466053

Запутался я уже, что именно и откуда качаю.. :fingal:

_________________


Top
 Profile E-mail  
 
 
PostPosted: 13 Aug 2012 
Хиппей (support team)
User avatar
Joined: 30 Jul 2007
Posts: 97115
Lоcаtion: Киев (Kyiv, UA)
Age: 44
Name: Andrey
Фуф, объединил три темы (раньше искали альбомы в mp3). Получился жыырный и хреного читаемый топег. :pardon:
Сейчас постараюсь разобраться, что еще не нашли... :umnik:

зы. Вроде не нашли какой-то, едрить, бонус к альбому какому-то. Смотрим полотенце в первом сообщении :cow:

Но тему все же перенесу в раздел lossless :dance:

_________________


Top
 Profile E-mail  
 
 
PostPosted: 13 Aug 2012 
10cm
User avatar
Joined: 03 Aug 2012
Posts: 98
Lоcаtion: Украина Донецк
Age: 58
Name: Владимир
Да уж :umnik:
Работу проделал не малую. Да вот только по оставались белые пятна в дискографии. :(
Будем искать недостающие.

_________________
Когда мы все попадем в тюрьму за скачивание музыки, надеюсь нас рассадят по жанрам.


Top
 Profile E-mail  
 
 
PostPosted: 14 Aug 2012 
Хиппей (support team)
User avatar
Joined: 30 Jul 2007
Posts: 97115
Lоcаtion: Киев (Kyiv, UA)
Age: 44
Name: Andrey
James Byrd's - 1991 - Atlantis Rising [ape]

Image

Genre: Hard & Heavy
Location: USA
Format: ape + cue + log + scans
Size: 334 Mb


Line-up:

James Byrd - guitars
Freddy Krumins - vocals
Evan Sheeley - bass
Scott Hunt - drums

    1. Into the Light - 04:40
    2. Let It Out - 04:42
    3. After the Fire - 03:52
    4. Fallen Warrior - 04:56
    5. Angel of Mercy - 06:15
    6. Driven by Desire - 04:41
    7. Eye of the Storm - 03:19
    8. Remember Love - 03:58
    9. Bay of Rainbows (instrumental) - 07:19
    10. Fly to the Sun - 03:49

    TPT: 47:31

Взято с http://rutracker.org/forum/viewtopic.php?t=2466053 :thanx:

Не знаю, кто здесь услышал прог-мэтал или нео-классику :vic:
Стилистически и в целом альбом выдержан в духе первых работ Ингви Малмстина. Приятный мелодичный хард-н-хэви с таким же приятным вокалом и очень хорошей работой гитариста. Никаких запилов и шредовых выкрутасов. Всё в меру, всё отлично. Но, к сожалению, без какой-либо индивидуальности :pardon:

7-/10

MultiUp l Narod

log
Отчёт EAC об извлечении, выполненном 28. февраля 2009, 14:58 для диска:
James Byrd's Atlantis Rising / Atlantis Rising

Дисковод: PIONEER DVD-RW DVR-212 Adapter: 1 ID: 0
Режим чтения: Достоверный (C2: нет, Точный поток: да, Отключение кэша: да)
Комбинированное смещение чтения/записи: 48
Способность читать области Lead-in и Lead-out : Нет

Выходной формат: Внутренние WAV-операции
44.100 Гц; 16 бит; стерео
Смещение при сжатии: 48

Другие параметры:
Заполнение пропущенных сэмплов тишиной : Да
Удаление блоков с тишиной в начале и конце : Нет
Установленный внешний ASPI-интерфейс


Характеристики диапазона извлечения и сообщения об ошибках
Выбранный диапазон
Имя файла F:\Захар\James Byrd's Atlantis Rising\Atlantis Rising 1991\wav\James Byrd's Atlantis Rising - Atlantis Rising.wav

Пиковый уровень 100.0 %
Качество диапазона 100.0 %
CRC 81FB00EA
Копирование... OK

Ошибок не произошло

Конец отчёта

cue
REM GENRE "Hard Rock"
REM DATE 1991
REM DISCID 9F0B270A
REM COMMENT "ExactAudioCopy v0.95b4"
PERFORMER "James Byrd's Atlantis Rising"
TITLE "Atlantis Rising"
FILE "James Byrd's Atlantis Rising - Atlantis Rising.wav" WAVE
TRACK 01 AUDIO
TITLE "Into The Light"
PERFORMER "James Byrd's Atlantis Rising"
INDEX 00 00:00:00
INDEX 01 00:00:37
TRACK 02 AUDIO
TITLE "Let It Out"
PERFORMER "James Byrd's Atlantis Rising"
INDEX 00 04:38:47
INDEX 01 04:40:52
TRACK 03 AUDIO
TITLE "After The Fire"
PERFORMER "James Byrd's Atlantis Rising"
INDEX 00 09:21:05
INDEX 01 09:23:35
TRACK 04 AUDIO
TITLE "Fallen Warrior"
PERFORMER "James Byrd's Atlantis Rising"
INDEX 00 13:12:72
INDEX 01 13:15:47
TRACK 05 AUDIO
TITLE "Angel Of Mercy"
PERFORMER "James Byrd's Atlantis Rising"
INDEX 00 18:10:09
INDEX 01 18:12:27
TRACK 06 AUDIO
TITLE "Driven By Desire"
PERFORMER "James Byrd's Atlantis Rising"
INDEX 00 24:27:44
INDEX 01 24:27:45
TRACK 07 AUDIO
TITLE "Eye Of The Storm"
PERFORMER "James Byrd's Atlantis Rising"
INDEX 00 29:06:36
INDEX 01 29:08:47
TRACK 08 AUDIO
TITLE "Remember Love"
PERFORMER "James Byrd's Atlantis Rising"
INDEX 00 32:26:27
INDEX 01 32:27:70
TRACK 09 AUDIO
TITLE "Bay Of Rainbows"
PERFORMER "James Byrd's Atlantis Rising"
INDEX 00 36:25:11
INDEX 01 36:26:25
TRACK 10 AUDIO
TITLE "Fly To The Sun"
PERFORMER "James Byrd's Atlantis Rising"
INDEX 00 43:45:58
INDEX 01 43:45:60

spectrum
Image


зы. Если верить обложке, то на сайте М-А указан неверно ударник проекта :umnik:

_________________


Top
 Profile E-mail  
 
 
PostPosted: 14 Aug 2012 
Хиппей (support team)
User avatar
Joined: 30 Jul 2007
Posts: 97115
Lоcаtion: Киев (Kyiv, UA)
Age: 44
Name: Andrey
James Byrd's Atlantis Rising - 1998 - Crimes Of Virtuocity (Japan) [flac tracks]

Image

Genre: Hard & Heavy/Neoclassical
Location: USA
Format: flac + cue + log + covers
Size: 442 Mb


Image

Line-up:

James Byrd (ex-Fifth Angel) - guitars, keyboards
Kendall Torrey - lead vocals
Randy Matthiessen - bass (rhythm guitar and keyboard on "Jane")
Chase Culp - drums
Keyboards on "Going Home" - Mike Jackson
Drums on "Jane" - Jay Roberts
Background vocals: Kendall Torrey, Amir "Lazy" Beso, James Byrd

    1. Prelude in Sea (instrumental) - 00:27
    2. Metatron - 05:48
    3. Heaven on Their Minds (A.L. Webber cover) - 05:21
    4. Shot Down in Flames (Japan bonus) - 04:57
    5. In My Darkest Hour - 05:16
    6. The Hunted Heretic (When I Was Young) - 05:18
    7. Jane (instrumental) - 04:39
    8. Get Free - 04:52
    9. Storm King - 06:58
    10. Goodbye My Love - 07:57
    11. Going Home - 04:36

    TPT: 56:02

Взято с viewtopic.php?p=79719#p79719 :pardon:

Ну и снова никакого прога не услышал. Типичный, стандартный хэви (иногда с утяжелённым хардом начала 90-х), за основу взят всё тот же гитарный, в меру виртуозный стиль и вокалист чисто хард-роковый, хоть и поёт лучше прежнего.
Несколько композиций построены на классических произведениях. Вернее, умело вплетены в канву песен.
Типа два каверы немного радуют, особенно на "Жисус крайст сюпер старъ" из одноименной рок-оперы. Только лирика, по-моему, изменена.
Альбом весьма неплох, но и до шедевра очень далеко.
В общем, на любителя. Меня послушивание не напрягало, но и не очень бодрило.

6+/10

Чем отличаются 7 с минусом от 6 с плюсом?
Цифры разные :umnik:

MultiUp l Narod

log
Exact Audio Copy V0.99 prebeta 4 from 23. January 2008

EAC extraction logfile from 28. November 2009, 12:07

James Byrd's Atlantis Rising / Crimes Of Virtuosity

Used drive : TEAC DV-W516GB Adapter: 0 ID: 2

Read mode : Secure
Utilize accurate stream : Yes
Defeat audio cache : Yes
Make use of C2 pointers : No

Read offset correction : 12
Overread into Lead-In and Lead-Out : No
Fill up missing offset samples with silence : Yes
Delete leading and trailing silent blocks : No
Null samples used in CRC calculations : Yes
Used interface : Native Win32 interface for Win NT & 2000
Gap handling : Not detected, thus appended to previous track

Used output format : User Defined Encoder
Selected bitrate : 640 kBit/s
Quality : High
Add ID3 tag : No
Command line compressor : C:\Program Files\Exact Audio Copy\FLAC\FLAC.EXE
Additional command line options : -6 -V -T "ARTIST=%a" -T "TITLE=%t" -T "ALBUM=%g" -T "DATE=%y" -T "TRACKNUMBER=%n" -T "GENRE=%m" -T "COMMENT=%e" %s -o %d


TOC of the extracted CD

Track | Start | Length | Start sector | End sector
---------------------------------------------------------
1 | 0:00.00 | 0:27.43 | 0 | 2067
2 | 0:27.43 | 5:46.50 | 2068 | 28067
3 | 6:14.18 | 5:21.47 | 28068 | 52189
4 | 11:35.65 | 4:57.18 | 52190 | 74482
5 | 16:33.08 | 5:14.40 | 74483 | 98072
6 | 21:47.48 | 5:16.25 | 98073 | 121797
7 | 27:03.73 | 4:39.27 | 121798 | 142749
8 | 31:43.25 | 4:51.68 | 142750 | 164642
9 | 36:35.18 | 6:57.17 | 164643 | 195934
10 | 43:32.35 | 7:55.15 | 195935 | 231574
11 | 51:27.50 | 4:39.13 | 231575 | 252512


Track 1

Filename I:\torrents\James Byrd's Atlantis Rising 1998 - Crimes of Virtuocity\01-Prelude In Sea.wav

Peak level 98.8 %
Track quality 99.6 %
Copy CRC 55567890
Copy OK

Track 2

Filename I:\torrents\James Byrd's Atlantis Rising 1998 - Crimes of Virtuocity\02-Metatron.wav

Peak level 98.8 %
Track quality 99.9 %
Copy CRC B512AEDF
Copy OK

Track 3

Filename I:\torrents\James Byrd's Atlantis Rising 1998 - Crimes of Virtuocity\03-Heaven On The Minds.wav

Peak level 98.8 %
Track quality 100.0 %
Copy CRC 532362B0
Copy OK

Track 4

Filename I:\torrents\James Byrd's Atlantis Rising 1998 - Crimes of Virtuocity\04-Shot Down In Flames.wav

Peak level 98.8 %
Track quality 100.0 %
Copy CRC 3791FA4C
Copy OK

Track 5

Filename I:\torrents\James Byrd's Atlantis Rising 1998 - Crimes of Virtuocity\05-In My Darkest Hour.wav

Peak level 98.8 %
Track quality 100.0 %
Copy CRC DE8C0C8D
Copy OK

Track 6

Filename I:\torrents\James Byrd's Atlantis Rising 1998 - Crimes of Virtuocity\06-The Hunted Heretic.wav

Peak level 98.8 %
Track quality 100.0 %
Copy CRC 31E3BA1A
Copy OK

Track 7

Filename I:\torrents\James Byrd's Atlantis Rising 1998 - Crimes of Virtuocity\07-Jane.wav

Peak level 98.8 %
Track quality 100.0 %
Copy CRC A08BD157
Copy OK

Track 8

Filename I:\torrents\James Byrd's Atlantis Rising 1998 - Crimes of Virtuocity\08-Get Free.wav

Peak level 98.8 %
Track quality 99.9 %
Copy CRC 56F023A8
Copy OK

Track 9

Filename I:\torrents\James Byrd's Atlantis Rising 1998 - Crimes of Virtuocity\09-Storm King.wav

Peak level 98.8 %
Track quality 100.0 %
Copy CRC C51EC388
Copy OK

Track 10

Filename I:\torrents\James Byrd's Atlantis Rising 1998 - Crimes of Virtuocity\10-Good Bye My Love.wav

Peak level 98.8 %
Track quality 100.0 %
Copy CRC A6A6CBC2
Copy OK

Track 11

Filename I:\torrents\James Byrd's Atlantis Rising 1998 - Crimes of Virtuocity\11-Going Home.wav

Peak level 98.8 %
Track quality 100.0 %
Copy CRC DDA3B228
Copy OK

No errors occurred

End of status report

cue
REM GENRE Rock
REM DATE 1998
REM DISCID A80D260B
REM COMMENT "ExactAudioCopy v0.99pb4"
PERFORMER "James Byrd's Atlantis Rising"
TITLE "Crimes Of Virtuosity"
FILE "01-Prelude In Sea.wav" WAVE
TRACK 01 AUDIO
TITLE "Prelude In Sea"
PERFORMER "James Byrd's Atlantis Rising"
INDEX 01 00:00:00
FILE "02-Metatron.wav" WAVE
TRACK 02 AUDIO
TITLE "Metatron"
PERFORMER "James Byrd's Atlantis Rising"
INDEX 01 00:00:00
FILE "03-Heaven On The Minds.wav" WAVE
TRACK 03 AUDIO
TITLE "Heaven On The Minds"
PERFORMER "James Byrd's Atlantis Rising"
INDEX 01 00:00:00
FILE "04-Shot Down In Flames.wav" WAVE
TRACK 04 AUDIO
TITLE "Shot Down In Flames"
PERFORMER "James Byrd's Atlantis Rising"
INDEX 01 00:00:00
FILE "05-In My Darkest Hour.wav" WAVE
TRACK 05 AUDIO
TITLE "In My Darkest Hour"
PERFORMER "James Byrd's Atlantis Rising"
INDEX 01 00:00:00
FILE "06-The Hunted Heretic.wav" WAVE
TRACK 06 AUDIO
TITLE "The Hunted Heretic"
PERFORMER "James Byrd's Atlantis Rising"
INDEX 01 00:00:00
FILE "07-Jane.wav" WAVE
TRACK 07 AUDIO
TITLE "Jane"
PERFORMER "James Byrd's Atlantis Rising"
INDEX 01 00:00:00
FILE "08-Get Free.wav" WAVE
TRACK 08 AUDIO
TITLE "Get Free"
PERFORMER "James Byrd's Atlantis Rising"
INDEX 01 00:00:00
FILE "09-Storm King.wav" WAVE
TRACK 09 AUDIO
TITLE "Storm King"
PERFORMER "James Byrd's Atlantis Rising"
INDEX 01 00:00:00
FILE "10-Good Bye My Love.wav" WAVE
TRACK 10 AUDIO
TITLE "Good Bye My Love"
PERFORMER "James Byrd's Atlantis Rising"
INDEX 01 00:00:00
FILE "11-Going Home.wav" WAVE
TRACK 11 AUDIO
TITLE "Going Home"
PERFORMER "James Byrd's Atlantis Rising"
INDEX 01 00:00:00

_________________


Top
 Profile E-mail  
 
 
PostPosted: 17 Aug 2012 
10cm
User avatar
Joined: 03 Aug 2012
Posts: 98
Lоcаtion: Украина Донецк
Age: 58
Name: Владимир
Удалось стянуть с ММТ Son of Man (1995) :dance: (который молчал глухо),
а вот Octoglomerate (1993) замолчал :(

_________________
Когда мы все попадем в тюрьму за скачивание музыки, надеюсь нас рассадят по жанрам.


Top
 Profile E-mail  
 
 
PostPosted: 17 Aug 2012 
Хиппей (support team)
User avatar
Joined: 30 Jul 2007
Posts: 97115
Lоcаtion: Киев (Kyiv, UA)
Age: 44
Name: Andrey
Аналогично. Только второго я вообще не видел с полными сидами :fingal:

_________________


Top
 Profile E-mail  
 
 
PostPosted: 10 Feb 2013 
Хиппей (support team)
User avatar
Joined: 30 Jul 2007
Posts: 97115
Lоcаtion: Киев (Kyiv, UA)
Age: 44
Name: Andrey
JAMES.BYRD.[1995].[CD].SON.OF.MAN.[EAC-APE].BY.Ring.Of.Fire.[MeTaLMaDNeSS.TeaM].RAR

ImageImage

MultiUp l Narod

log
EAC extraction logfile from 25. March 2007, 15:44 for CD
james byrd / son of man

Used drive : COMPAQ DVD-ROM SD-612B Adapter: 1 ID: 0
Read mode : Secure with NO C2, accurate stream, disable cache
Read offset correction : 704
Overread into Lead-In and Lead-Out : No

Used output format : C:\Archivos de programa\Exact Audio Copy\MAC.exe (Monkey's Audio Lossless Encoder)
High Lossless Compression

Other options :
Fill up missing offset samples with silence : Yes
Delete leading and trailing silent blocks : No
Installed external ASPI interface


Range status and errors
Selected range
Filename I:\CDImage.wav

Peak level 100.0 %
Range quality 99.9 %
CRC AE42C4DB
Copy OK

No errors occured

End of status report

cue
PERFORMER "james byrd"
TITLE "son of man"
FILE "CDImage.ape" WAVE
TRACK 01 AUDIO
TITLE "in the beginning"
PERFORMER "james byrd"
INDEX 01 00:00:00
TRACK 02 AUDIO
TITLE "adam"
PERFORMER "james byrd"
INDEX 00 07:02:73
INDEX 01 07:06:25
TRACK 03 AUDIO
TITLE "the world requiem"
PERFORMER "james byrd"
INDEX 00 10:17:55
INDEX 01 10:20:62
TRACK 04 AUDIO
TITLE "ezekiel (son of man)"
PERFORMER "james byrd"
INDEX 00 14:54:44
INDEX 01 14:56:57
TRACK 05 AUDIO
TITLE "yeshua - adonai elohim"
PERFORMER "james byrd"
INDEX 00 20:28:69
INDEX 01 20:31:42
TRACK 06 AUDIO
TITLE "out of the temple"
PERFORMER "james byrd"
INDEX 00 23:20:22
INDEX 01 23:23:02
TRACK 07 AUDIO
TITLE "the teacher / beatitude"
PERFORMER "james byrd"
INDEX 00 27:20:38
INDEX 01 27:24:25
TRACK 08 AUDIO
TITLE "golgotha / the right hand of power"
PERFORMER "james byrd"
INDEX 00 33:03:19
INDEX 01 33:05:71
TRACK 09 AUDIO
TITLE "in my fathers house"
PERFORMER "james byrd"
INDEX 00 39:28:59
INDEX 01 39:31:62

_________________


Top
 Profile E-mail  
 
 
PostPosted: 11 Feb 2013 
консэрваторъ
Joined: 11 Aug 2007
Posts: 14421
Lоcаtion: Псков
Age: 43
Name: Сергей
А что означает этот тег [reqs???] ???

_________________
THRASH 'EM ALL


Top
 Profile E-mail  
 
 
PostPosted: 11 Feb 2013 
Хиппей (support team)
User avatar
Joined: 30 Jul 2007
Posts: 97115
Lоcаtion: Киев (Kyiv, UA)
Age: 44
Name: Andrey
А это не совсем понятно - ищем тот сраный альбом с бонусом или нет :pardon:

_________________


Top
 Profile E-mail  
 
Display posts from previous:  Sort by  
Post new topic Reply to topic  [ 113 posts ]  Go to page Previous  1, 2, 3, 4, 5, 6

All times are UTC + 3 hours


Who is online

Users browsing this forum: No registered users and 1 guest


You cannot post new topics in this forum
You cannot reply to topics in this forum
You cannot edit your posts in this forum
You cannot delete your posts in this forum
You cannot post attachments in this forum

Search for:
Яндекс.Метрика
Powered by phpBB © 2000, 2002, 2005, 2007 phpBB Group