\m/ 80's metal \m/

Информационно-аналитический форум "80 см пыли" (In Search We Trust) "У нас никто никуда не спешит"
Железнодорожная биржа - RailAgent
It is currently 14 Dec 2017

All times are UTC + 3 hours

Spoiler
Chat - temporary registration for foreign users (please leave your application here)







Post new topic Reply to topic  [ 19 posts ] 
Author Message
 
PostPosted: 07 Sep 2009 
мелосмертхстер
User avatar
Joined: 11 Jul 2008
Posts: 1058
Lоcаtion: (Әлмәт/Самара)
Age: 41
Name: Rus†Ⓐm
ищу в 320 Jagged Edge - Trouble (1989)

Image Image

Genre - Melodic Hard Rock , AOR
Country - UNITED KINGDOM, London
Line-up:
Matti Alfonzetti - lead vocals
Myke Gray - guitar
Andy Robbins - bass, backing vocals
Fabio Del Rio - drums

Tracks:
1. Trouble 4:13
2. You Don't Love Me 4:11
3. Rosie Rosie 3:10
4. Crash and Burn 3:31
5. Good Golly Miss Molly 3:12

Heavy Harmonies
Music-Might

p.s. если кому надо в 192 , могу оформить......

_________________
Everytime I Die

Image


Top
 Profile E-mail  
 
 
PostPosted: 07 Sep 2009 
Old Time Rock`n`Roll
User avatar
Joined: 23 Jun 2008
Posts: 3318
Lоcаtion: г.Ульяновск
Age: 39
Name: Константин
Если что - у меня 256, заказывал на Under No one`s Flag в свое время, хороший рип.
Good Golly Miss Molly :meloman:


Top
 Profile  
 
 
PostPosted: 07 Sep 2009 
мелосмертхстер
User avatar
Joined: 11 Jul 2008
Posts: 1058
Lоcаtion: (Әлмәт/Самара)
Age: 41
Name: Rus†Ⓐm
Костя если ни у кого в 320 не найдется , зальешь?

_________________
Everytime I Die

Image


Top
 Profile E-mail  
 
 
PostPosted: 07 Sep 2009 
Old Time Rock`n`Roll
User avatar
Joined: 23 Jun 2008
Posts: 3318
Lоcаtion: г.Ульяновск
Age: 39
Name: Константин
ОК, не вопрос.


Top
 Profile  
 
 
PostPosted: 21 Nov 2009 
хард н хэвщик (support team)
User avatar
Joined: 02 Jun 2008
Posts: 16879
Lоcаtion: Н.Новгород
Age: 30
Name: Артем
Костя, залей плиз, тоже возьму


Top
 Profile  
 
 
PostPosted: 21 Nov 2009 
Old Time Rock`n`Roll
User avatar
Joined: 23 Jun 2008
Posts: 3318
Lоcаtion: г.Ульяновск
Age: 39
Name: Константин
Jagged Edge - Trouble (EP,1989)

256 Kbs, 33 Mb
http://www.megaupload.com/?d=ZOMQ5MTS


Top
 Profile  
 
 
PostPosted: 21 Nov 2009 
хард н хэвщик (support team)
User avatar
Joined: 02 Jun 2008
Posts: 16879
Lоcаtion: Н.Новгород
Age: 30
Name: Артем
R , 256 нормально будет или ищем 320 ?


Top
 Profile  
 
 
PostPosted: 21 Nov 2009 
мелосмертхстер
User avatar
Joined: 11 Jul 2008
Posts: 1058
Lоcаtion: (Әлмәт/Самара)
Age: 41
Name: Rus†Ⓐm
Костя спасибо :thanx:
McKagan wrote:
R , 256 нормально будет или ищем 320 ?

а вдруг.............. найдется?

_________________
Everytime I Die

Image


Top
 Profile E-mail  
 
 
PostPosted: 22 Nov 2009 
мелосмертхстер
User avatar
Joined: 11 Jul 2008
Posts: 1058
Lоcаtion: (Әлмәт/Самара)
Age: 41
Name: Rus†Ⓐm
Артем если скачал перезалей пожалуйста .......не отдает мне мега этот файл, видимо лимит превысил :fingal:

_________________
Everytime I Die

Image


Top
 Profile E-mail  
 
 
PostPosted: 22 Nov 2009 
Хиппей (support team)
User avatar
Joined: 30 Jul 2007
Posts: 97011
Lоcаtion: Киев (Kyiv, UA)
Age: 44
Name: Andrey
MultiUp
Narod

_________________


Top
 Profile E-mail  
 
 
PostPosted: 22 Nov 2009 
мелосмертхстер
User avatar
Joined: 11 Jul 2008
Posts: 1058
Lоcаtion: (Әлмәт/Самара)
Age: 41
Name: Rus†Ⓐm
:thanx:

_________________
Everytime I Die

Image


Top
 Profile E-mail  
 
 
PostPosted: 23 Nov 2009 
Хиппей (support team)
User avatar
Joined: 30 Jul 2007
Posts: 97011
Lоcаtion: Киев (Kyiv, UA)
Age: 44
Name: Andrey
oldrocker wrote:
Jagged Edge - Trouble (EP,1989)

О, спасибо, вот такой я глэм обожаю :true:
Или это не глэм? А всё равно нравится :dance:

_________________


Top
 Profile E-mail  
 
 
PostPosted: 24 Nov 2009 
Old Time Rock`n`Roll
User avatar
Joined: 23 Jun 2008
Posts: 3318
Lоcаtion: г.Ульяновск
Age: 39
Name: Константин
Это интелегентный британский мелодик хард))


Top
 Profile  
 
 
PostPosted: 21 Feb 2010 
Хиппей (support team)
User avatar
Joined: 30 Jul 2007
Posts: 97011
Lоcаtion: Киев (Kyiv, UA)
Age: 44
Name: Andrey
Эх, :meloman: офигенный все же миник! :true:

_________________


Top
 Profile E-mail  
 
 
PostPosted: 19 Apr 2012 
Rara avis
User avatar
Joined: 27 Jan 2009
Posts: 3997
Name: .
http://forum.darksage.ru/forum/80-9108-1


Top
 Profile E-mail  
 
 
PostPosted: 23 Apr 2012 
Хиппей (support team)
User avatar
Joined: 30 Jul 2007
Posts: 97011
Lоcаtion: Киев (Kyiv, UA)
Age: 44
Name: Andrey
А там ссылка была на Меге.
Попросить обновить?

_________________


Top
 Profile E-mail  
 
 
PostPosted: 23 Apr 2012 
Хиппей (support team)
User avatar
Joined: 30 Jul 2007
Posts: 97011
Lоcаtion: Киев (Kyiv, UA)
Age: 44
Name: Andrey
Впрочем, лосём весь Инет завален :pardon: http://rutracker.org/forum/viewtopic.php?t=3444813

_________________


Top
 Profile E-mail  
 
 
PostPosted: 23 Apr 2012 
Хиппей (support team)
User avatar
Joined: 30 Jul 2007
Posts: 97011
Lоcаtion: Киев (Kyiv, UA)
Age: 44
Name: Andrey
Jagged Edge (UK) - 1990 - Fuel For Your Soul [ape]

Image

Genre: Hard Rock
Location: UK
Format: ape + cue + log + scans
Size: 333 Mb


Line-up:
Matti Alfonzetti - lead vocals
Myke Gray - guitar
Andy Robbins - bass, backing vocals
Fabio Del Rio - drums

    1. Liar - 04:36
    2. Out in the Cold - 03:26
    3. You Don't Love Me - 04:14
    4. Hell Ain't a Long Way - 03:44
    5. Smooth Operator - 04:20
    6. Sweet Lorraine - 04:47
    7. Fuel for your Soul - 03:53
    8. Law of the Land - 04:18
    9. Loving You Too Long - 04:25
    10. All Thru the Night - 03:44
    11. Money Talking - 03:46
    12. Burnin' Up - 03:39

    TPT: 48:52


К сожалению, альбом оказался средненькой такой молодежной хард-роковой тоской в типичной тоскливой манере :(
Прослушал два раза и ничего в башку не добавилось.
Спасибо, что не отнялось :shok: Вроде... :scratch:

3+/10

ps. Покушамши вареников с мясом еще раз переслушал альбом.
Хм... пожалуй, подыму оценку до 4 баллов :pardon:

MultiUp l Narod

log
Exact Audio Copy V0.99 prebeta 5 from 4. May 2009

EAC extraction logfile from 30. January 2011, 0:46

Jagged Edge UK / Fuel For Your Soul

Used drive : MATSHITADVD-RAM UJ-852S Adapter: 0 ID: 0

Read mode : Secure
Utilize accurate stream : Yes
Defeat audio cache : Yes
Make use of C2 pointers : No

Read offset correction : 102
Overread into Lead-In and Lead-Out : No
Fill up missing offset samples with silence : Yes
Delete leading and trailing silent blocks : No
Null samples used in CRC calculations : Yes
Used interface : Installed external ASPI interface

Used output format : Monkey's Audio Lossless Encoder
Selected bitrate : Normal Lossless Compression
Quality : High
Add ID3 tag : Yes
Command line compressor : C:\Program Files\Exact Audio Copy\MAC.exe


TOC of the extracted CD

Track | Start | Length | Start sector | End sector
---------------------------------------------------------
1 | 0:00.00 | 4:35.30 | 0 | 20654
2 | 4:35.30 | 3:26.05 | 20655 | 36109
3 | 8:01.35 | 4:14.60 | 36110 | 55219
4 | 12:16.20 | 3:44.45 | 55220 | 72064
5 | 16:00.65 | 4:19.00 | 72065 | 91489
6 | 20:19.65 | 4:48.10 | 91490 | 113099
7 | 25:08.00 | 3:52.40 | 113100 | 130539
8 | 29:00.40 | 4:19.05 | 130540 | 149969
9 | 33:19.45 | 4:25.45 | 149970 | 169889
10 | 37:45.15 | 3:44.70 | 169890 | 186759
11 | 41:30.10 | 3:46.45 | 186760 | 203754
12 | 45:16.55 | 3:43.55 | 203755 | 220534


Range status and errors

Selected range

Filename C:\EACrip\Jagged Edge UK - Fuel For Your Soul.wav

Peak level 100.0 %
Range quality 100.0 %
Copy CRC 399DD58F
Copy OK

No errors occurred


AccurateRip summary

Track 1 not present in database
Track 2 not present in database
Track 3 not present in database
Track 4 not present in database
Track 5 not present in database
Track 6 not present in database
Track 7 not present in database
Track 8 not present in database
Track 9 not present in database
Track 10 not present in database
Track 11 not present in database
Track 12 not present in database

None of the tracks are present in the AccurateRip database

End of status report

cue
REM GENRE Metal
REM DATE 1990
REM DISCID 960B7C0C
REM COMMENT "ExactAudioCopy v0.99pb5"
PERFORMER "Jagged Edge UK"
TITLE "Fuel For Your Soul"
FILE "Jagged Edge UK - Fuel For Your Soul.ape" WAVE
TRACK 01 AUDIO
TITLE "Liar"
PERFORMER "Jagged Edge UK"
FLAGS DCP
INDEX 01 00:00:00
TRACK 02 AUDIO
TITLE "Out In The Cold"
PERFORMER "Jagged Edge UK"
FLAGS DCP
INDEX 01 04:35:30
TRACK 03 AUDIO
TITLE "You Don't Love Me"
PERFORMER "Jagged Edge UK"
FLAGS DCP
INDEX 01 08:01:35
TRACK 04 AUDIO
TITLE "Hell Ain't A Long Way"
PERFORMER "Jagged Edge UK"
FLAGS DCP
INDEX 01 12:16:20
TRACK 05 AUDIO
TITLE "Smooth Operator"
PERFORMER "Jagged Edge UK"
FLAGS DCP
INDEX 01 16:00:65
TRACK 06 AUDIO
TITLE "Sweet Lorraine"
PERFORMER "Jagged Edge UK"
FLAGS DCP
INDEX 01 20:19:65
TRACK 07 AUDIO
TITLE "Fuel For Your Soul"
PERFORMER "Jagged Edge UK"
FLAGS DCP
INDEX 01 25:08:00
TRACK 08 AUDIO
TITLE "Law Of The Land"
PERFORMER "Jagged Edge UK"
FLAGS DCP
INDEX 01 29:00:40
TRACK 09 AUDIO
TITLE "Loving You Too Long"
PERFORMER "Jagged Edge UK"
FLAGS DCP
INDEX 01 33:19:45
TRACK 10 AUDIO
TITLE "All Thru The Night"
PERFORMER "Jagged Edge UK"
FLAGS DCP
INDEX 01 37:45:15
TRACK 11 AUDIO
TITLE "Money Talking"
PERFORMER "Jagged Edge UK"
FLAGS DCP
INDEX 01 41:30:10
TRACK 12 AUDIO
TITLE "Burnin' Up"
PERFORMER "Jagged Edge UK"
FLAGS DCP
INDEX 01 45:16:55

spectrum
Image

_________________


Top
 Profile E-mail  
 
 
PostPosted: 23 Apr 2012 
Хиппей (support team)
User avatar
Joined: 30 Jul 2007
Posts: 97011
Lоcаtion: Киев (Kyiv, UA)
Age: 44
Name: Andrey
Jagged Edge (UK) - 1990 - Trouble [ape]

Image

Genre: Hard Rock
Location: UK
Format: ape + cue + log + scans
Size: 323 Mb


Line-up:
Matti Alfonzetti - lead vocals
Myke Gray - guitar
Andy Robbins - bass, backing vocals
Fabio Del Rio - drums

1. Trouble - 04:13
2. You Don't Love Me - 04:11
3. Rosie Rosie - 03:10
4. Crash and Burn - 03:31
5. Good Golly Miss Molly - 03:12
6. Rock The Nation
7. Dont Force Your Love On Me
8. Fire And Water
9. Resurrect
10. Rosie Rosie (Live)
11. All Thru The Night (Live)
12. Life In The East Lane (Live)

TPT: **:**


Ну вот, уже намного веселее.
Задорные хардроковые рокендрольные песни и активные блюзы аля Whitesnake, каверочки, живые концертные трэки и прочая лабуда. Но, как же это положительно диссонирует с предыдущей вялой работой :meloman:
"Лабуда" к минику была добавлена на переиздании. А так это был 5-ти песенный EP.
Соответственно и оценка всему альбому, а не только ипишке.

6/10

MultiUp l Narod

ps. Инфу по группе пока не смотрел. Авось они ваще разные =) Или сменился состав...
Позже уточню.

log
Exact Audio Copy V0.99 prebeta 5 from 4. May 2009

EAC extraction logfile from 31. January 2011, 1:23

JAGGED EDGE U.K. / Trouble

Used drive : MATSHITADVD-RAM UJ-852S Adapter: 0 ID: 0

Read mode : Secure
Utilize accurate stream : Yes
Defeat audio cache : Yes
Make use of C2 pointers : No

Read offset correction : 102
Overread into Lead-In and Lead-Out : No
Fill up missing offset samples with silence : Yes
Delete leading and trailing silent blocks : No
Null samples used in CRC calculations : Yes
Used interface : Installed external ASPI interface

Used output format : Monkey's Audio Lossless Encoder
Selected bitrate : Normal Lossless Compression
Quality : High
Add ID3 tag : Yes
Command line compressor : C:\Program Files\Exact Audio Copy\MAC.exe


TOC of the extracted CD

Track | Start | Length | Start sector | End sector
---------------------------------------------------------
1 | 0:00.00 | 4:13.15 | 0 | 18989
2 | 4:13.15 | 4:14.50 | 18990 | 38089
3 | 8:27.65 | 3:12.05 | 38090 | 52494
4 | 11:39.70 | 3:33.05 | 52495 | 68474
5 | 15:13.00 | 3:17.15 | 68475 | 83264
6 | 18:30.15 | 3:02.25 | 83265 | 96939
7 | 21:32.40 | 3:25.55 | 96940 | 112369
8 | 24:58.20 | 3:39.55 | 112370 | 128849
9 | 28:38.00 | 4:12.05 | 128850 | 147754
10 | 32:50.05 | 3:59.15 | 147755 | 165694
11 | 36:49.20 | 3:20.55 | 165695 | 180749
12 | 40:10.00 | 4:22.00 | 180750 | 200399


Range status and errors

Selected range

Filename C:\EACrip\JAGGED EDGE U.K. - Trouble.wav

Peak level 100.0 %
Range quality 100.0 %
Test CRC E380E2D1
Copy CRC E380E2D1
Copy OK

No errors occurred


AccurateRip summary

Track 1 not present in database
Track 2 not present in database
Track 3 not present in database
Track 4 not present in database
Track 5 not present in database
Track 6 not present in database
Track 7 not present in database
Track 8 not present in database
Track 9 not present in database
Track 10 not present in database
Track 11 not present in database
Track 12 not present in database

None of the tracks are present in the AccurateRip database

End of status report

cue
REM GENRE "Hard Rock"
REM DATE 1990
REM DISCID 7A0A700C
REM COMMENT "ExactAudioCopy v0.99pb5"
PERFORMER "JAGGED EDGE U.K."
TITLE "Trouble"
FILE "JAGGED EDGE U.K. - Trouble.ape" WAVE
TRACK 01 AUDIO
TITLE "Trouble"
PERFORMER "JAGGED EDGE U.K."
FLAGS DCP
INDEX 01 00:00:00
TRACK 02 AUDIO
TITLE "You Don't Love Me"
PERFORMER "JAGGED EDGE U.K."
FLAGS DCP
INDEX 01 04:13:15
TRACK 03 AUDIO
TITLE "Rosie Rosie"
PERFORMER "JAGGED EDGE U.K."
FLAGS DCP
INDEX 01 08:27:65
TRACK 04 AUDIO
TITLE "Crash and Burn"
PERFORMER "JAGGED EDGE U.K."
FLAGS DCP
INDEX 01 11:39:70
TRACK 05 AUDIO
TITLE "Good Golly Miss Molly"
PERFORMER "JAGGED EDGE U.K."
FLAGS DCP
INDEX 01 15:13:00
TRACK 06 AUDIO
TITLE "Rock The Nation"
PERFORMER "JAGGED EDGE U.K."
FLAGS DCP
INDEX 01 18:30:15
TRACK 07 AUDIO
TITLE "Dont Force Your Love On Me"
PERFORMER "JAGGED EDGE U.K."
FLAGS DCP
INDEX 01 21:32:40
TRACK 08 AUDIO
TITLE "Fire And Water"
PERFORMER "JAGGED EDGE U.K."
FLAGS DCP
INDEX 01 24:58:20
TRACK 09 AUDIO
TITLE "Resurrect"
PERFORMER "JAGGED EDGE U.K."
FLAGS DCP
INDEX 01 28:38:00
TRACK 10 AUDIO
TITLE "Rosie Rosie (Live)"
PERFORMER "JAGGED EDGE U.K."
FLAGS DCP
INDEX 01 32:50:05
TRACK 11 AUDIO
TITLE "All Thru The Night (Live)"
PERFORMER "JAGGED EDGE U.K."
FLAGS DCP
INDEX 01 36:49:20
TRACK 12 AUDIO
TITLE "Life In The East Lane (live)"
PERFORMER "JAGGED EDGE U.K."
FLAGS DCP
INDEX 01 40:10:00

spectrum
Image

_________________


Top
 Profile E-mail  
 
Display posts from previous:  Sort by  
Post new topic Reply to topic  [ 19 posts ] 

All times are UTC + 3 hours


Who is online

Users browsing this forum: No registered users and 1 guest


You cannot post new topics in this forum
You cannot reply to topics in this forum
You cannot edit your posts in this forum
You cannot delete your posts in this forum
You cannot post attachments in this forum

Search for:
Яндекс.Метрика
Powered by phpBB © 2000, 2002, 2005, 2007 phpBB Group