\m/ 80's metal \m/

Информационно-аналитический форум "80 см пыли" (In Search We Trust) "У нас никто никуда не спешит"
Железнодорожная биржа - RailAgent
It is currently 14 Dec 2017

All times are UTC + 3 hours

Spoiler
Chat - temporary registration for foreign users (please leave your application here)







Post new topic Reply to topic  [ 5 posts ] 
Author Message
 
PostPosted: 22 Mar 2009 
Power Metal Maniac
User avatar
Joined: 09 Aug 2008
Posts: 5924
Lоcаtion: Москва
Age: 39
Name: Егор
Joe Stump's Reign of Terror - Light in the Sky (Japan)

Image

Жанр: Heavy/Power Metal
Год выпуска диска: 1995
Страна: USA
Аудио кодек: APE
Тип рипа: image+.cue+scans
Битрейт аудио: lossless
Продолжительность: 59:01
Трэклист:
1. Don't Look Back 3:52
2. Broken Heart 5:04
3. Highway Star (Deep Purple cover) 6:15
4. I Need Your Love 5:26
5. Better Off Dead 4:22
6. Don't Play Fair 5:28
7. Heartless 6:28
8. Guitar Concerto In D Minor 2:50
9. Day By Day 5:43
10. Take A Little 5:49
11. Light In The Sky 7:40
Доп. информация:
Line-up :

Brian Sarvela (Vocals)
Joe Stump (Guitars)
James Francis Simpson (Bass)
Jeff Tortora (Drums)
Joe Codi (Keyboards)


log
Exact Audio Copy V0.99 prebeta 4 from 23. January 2008

EAC extraction logfile from 22. March 2009, 8:50

Joe Stump's Reign Of Terror / Light In The Sky

Used drive : TEAC DV-W516GB Adapter: 0 ID: 2

Read mode : Secure
Utilize accurate stream : Yes
Defeat audio cache : Yes
Make use of C2 pointers : No

Read offset correction : 12
Overread into Lead-In and Lead-Out : No
Fill up missing offset samples with silence : Yes
Delete leading and trailing silent blocks : No
Null samples used in CRC calculations : Yes
Used interface : Native Win32 interface for Win NT & 2000

Used output format : Internal WAV Routines
Sample format : 44.100 Hz; 16 Bit; Stereo

TOC of the extracted CD

Track | Start | Length | Start sector | End sector
---------------------------------------------------------
1 | 0:00.00 | 3:52.70 | 0 | 17469
2 | 3:52.70 | 5:03.67 | 17470 | 40261
3 | 8:56.62 | 6:15.58 | 40262 | 68444
4 | 15:12.45 | 5:25.62 | 68445 | 92881
5 | 20:38.32 | 4:23.05 | 92882 | 112611
6 | 25:01.37 | 5:27.73 | 112612 | 137209
7 | 30:29.35 | 6:28.02 | 137210 | 166311
8 | 36:57.37 | 2:50.38 | 166312 | 179099
9 | 39:48.00 | 5:43.12 | 179100 | 204836
10 | 45:31.12 | 5:49.30 | 204837 | 231041
11 | 51:20.42 | 7:40.70 | 231042 | 265611

Range status and errors

Selected range

Filename I:\torrents\Joe Stump's Reign of Terror 1995 - Light in the Sky\Joe Stump's Reign Of Terror - Light In The Sky.wav

Peak level 98.4 %
Range quality 99.9 %
Copy CRC 3257C99D
Copy OK

No errors occurred

End of status report




Народ, 409 Mb

_________________
Long Live Metal!


Top
 Profile  
 
 
PostPosted: 22 Mar 2009 
Хиппей (support team)
User avatar
Joined: 30 Jul 2007
Posts: 97011
Lоcаtion: Киев (Kyiv, UA)
Age: 44
Name: Andrey
Спасибо, Е :thanx:


Top
 Profile E-mail  
 
 
PostPosted: 29 Mar 2009 
Прокъмитолист
User avatar
Joined: 12 Aug 2007
Posts: 6252
Lоcаtion: Санктъ-Петербуркъ
Age: 50
Name: Олекъ
мои благодарности :thanx:

_________________
прокъметол - это музыко, от которово есть прок (ы)


Top
 Profile  
 
 
PostPosted: 08 Nov 2009 
Труъ
User avatar
Joined: 07 Apr 2009
Posts: 183
Lоcаtion: Беларусь, Минск
Age: 26
Name: Никита
А можно в мп3? :oops:

_________________
"...AND THE REST IS ROCK 'N ROLL."


Top
 Profile  
 
 
PostPosted: 08 Nov 2009 
Труъ
User avatar
Joined: 07 Apr 2009
Posts: 183
Lоcаtion: Беларусь, Минск
Age: 26
Name: Никита
Просьба снимается, утянул лося. Спасибо и за него.

_________________
"...AND THE REST IS ROCK 'N ROLL."


Top
 Profile  
 
Display posts from previous:  Sort by  
Post new topic Reply to topic  [ 5 posts ] 

All times are UTC + 3 hours


Who is online

Users browsing this forum: No registered users and 1 guest


You cannot post new topics in this forum
You cannot reply to topics in this forum
You cannot edit your posts in this forum
You cannot delete your posts in this forum
You cannot post attachments in this forum

Search for:
Яндекс.Метрика
Powered by phpBB © 2000, 2002, 2005, 2007 phpBB Group