\m/ 80's metal \m/

Информационно-аналитический форум "80 см пыли" (In Search We Trust) "У нас никто никуда не спешит"
Железнодорожная биржа - RailAgent
It is currently 14 Dec 2017

All times are UTC + 3 hours

Spoiler
Chat - temporary registration for foreign users (please leave your application here)







Post new topic Reply to topic  [ 104 posts ]  Go to page Previous  1, 2, 3, 4, 5, 6  Next
Author Message
 
PostPosted: 10 Apr 2017 
А может смените мне статус?..
User avatar
Joined: 04 Jul 2009
Posts: 612
Age: 44
Name: dima
хе, качали качали но не у кого нет) Олегу написал, спасибо


Top
 Profile E-mail  
 
 
PostPosted: 10 Apr 2017 
дядя Миша
User avatar
Joined: 17 Oct 2008
Posts: 2801
Lоcаtion: USSR
Age: 55
Name: Khy
deminbek
Надо диск найти, и время сделать рип. Быстро не получится.


Top
 Profile  
 
 
PostPosted: 10 Apr 2017 
А может смените мне статус?..
User avatar
Joined: 04 Jul 2009
Posts: 612
Age: 44
Name: dima
VARVAAR

я пока в Москве, так что жду


Top
 Profile E-mail  
 
 
PostPosted: 10 Apr 2017 
Прокъмитолист
User avatar
Joined: 12 Aug 2007
Posts: 6252
Lоcаtion: Санктъ-Петербуркъ
Age: 50
Name: Олекъ
Jag Panzer [1987] Chain Of Command (2004 remaster)
Century Media Records 77569-2

Image

Genre: heavy/power metal
Country: USA
Contents: flac/cue/log/covers
Size: 345 MB

Tracklist:
01. Prelude + Chain Of Command
02. Shadow Thief
03. She Waits
04. Ride Through The Storm
05. In A Gadda Da Vida [Iron Butterfly]
06. Never Surrender
07. Burning Heart
08. Sworn To Silence
09. Dream Theme
10. Gavotte In D
. . . bonus track:
11. When The Walls Come Down

Playtime: 48:19

Lineup:
Bob Parduba - vocals
Mark Briody - guitars, keyboards and backing vocals
Christian Lasegue - guitars
John Tetley - bass
Rikard Stjernquist - drums

Review
Interesting... this is not the same Jag Panzer that owned every single one of your poseur souls on "Ample Destruction", nor is this the same Jag Panzer that would be kicking ass in a more progressive form on "Mechanized Warfare". And this definitely isn't the same Jag Panzer that released the horrible "Dissident Alliance" in 1994. "Chain Of Command" is an outing that is more akin to stuff like Fifth Angel, "Somewhere In Time"-era Iron Maiden or Queensryche. At this time, the band featured vocalist Bob Parduba, who for the most part does a pretty awesome job. Not a TYRANT job, per say, but he sounds like a pretty good 80's Power Metal singer.

The title track, "She Waits", "Ride Through The Storm" and "Never Surrender" are completely in this style, all enjoyable songs. "Shadow Thief" is one of the catchier numbers and "Burning Heart" is the highlight of the album, with great hooks and excellent vocals. The cover of "In A Gadda Da Vida" is good fun, as is the dystopia-themed "Sworn To Silence". "Dream Theme" is a very interesting instrumental, integrating acoustic and electric parts, coming off very much like something heard from Fates Warning's "Awaken The Guardian". The instrumental goes through a few tempo changes, making it a rather progressive number in form. Actually, it's probably the most interesting point of the entire album. "Gavotte In D" is a nice interlude, leading into the bonus track "When The Walls Come Down". The bonus track is a nice 80's Metal balladic rocker, and one can tell that the track was never finished completely, because it fades out in the middle of the solo.

The production on here is pretty fucking thin, and that is the only huge hindrance. Also, the synthesizers sound ghetto as hell, even for 1987 - they make the keys on Rush's "Grace Under Pressure" sound like a string ensemble. Besides these quirks, there's not really a bad song on here; its all by-the-book 80's Power Metal with really thin production. Kind of disappointing, seeing the innovation Jag is capable of, but it's not bad. I only recommend it to fans, though.

Encyclopaedia Metallum

EAC log
Code:
Exact Audio Copy V1.0 beta 1 from 15. November 2010

EAC extraction logfile from 13. September 2011, 17:01

Jag Panzer / Chain Of Command (2004)

Used drive  : Optiarc DVD RW AD-7240S   Adapter: 2  ID: 0

Read mode               : Secure
Utilize accurate stream : Yes
Defeat audio cache      : Yes
Make use of C2 pointers : No

Read offset correction                      : 48
Overread into Lead-In and Lead-Out          : No
Fill up missing offset samples with silence : Yes
Delete leading and trailing silent blocks   : No
Null samples used in CRC calculations       : Yes
Used interface                              : Native Win32 interface for Win NT & 2000

Used output format : Internal WAV Routines
Sample format      : 44.100 Hz; 16 Bit; Stereo


TOC of the extracted CD

     Track |   Start  |  Length  | Start sector | End sector
    ---------------------------------------------------------
        1  |  0:00.00 |  5:30.68 |         0    |    24817   
        2  |  5:30.68 |  5:26.50 |     24818    |    49317   
        3  | 10:57.43 |  4:54.66 |     49318    |    71433   
        4  | 15:52.34 |  5:23.13 |     71434    |    95671   
        5  | 21:15.47 |  4:44.56 |     95672    |   117027   
        6  | 26:00.28 |  4:48.28 |    117028    |   138655   
        7  | 30:48.56 |  3:45.66 |    138656    |   155596   
        8  | 34:34.47 |  3:13.45 |    155597    |   170116   
        9  | 37:48.17 |  4:36.37 |    170117    |   190853   
       10  | 42:24.54 |  1:07.45 |    190854    |   195923   
       11  | 43:32.24 |  4:47.20 |    195924    |   217468   


Range status and errors

Selected range

     Filename D:\spiralarch\Jag Panzer - Chain Of Command (2004).wav

     Peak level 96.5 %
     Extraction speed 0.3 X
     Range quality 99.9 %
     Copy CRC AD9E381B
     Copy OK

No errors occurred


AccurateRip summary

Track  1  accurately ripped (confidence 9)  [1AFE6D36]
Track  2  accurately ripped (confidence 9)  [78D2A06B]
Track  3  accurately ripped (confidence 9)  [2FBA82B1]
Track  4  accurately ripped (confidence 9)  [4ABB67E2]
Track  5  accurately ripped (confidence 9)  [5CECA222]
Track  6  accurately ripped (confidence 8)  [18E45E42]
Track  7  accurately ripped (confidence 9)  [5C12FDF2]
Track  8  accurately ripped (confidence 9)  [83BDDA23]
Track  9  accurately ripped (confidence 8)  [48C413BC]
Track 10  accurately ripped (confidence 9)  [0F581A24]
Track 11  accurately ripped (confidence 9)  [A990AF77]

All tracks accurately ripped

End of status report

==== Log checksum 2DCD3B88AD899765A2BC0213ABACFB948F8175BD7FDCC5E0024FCCECFECA33EE ====


Jag Panzer [1994] [CD] Dissident Alliance
Rising Sun Productions 084-62292

Image

Genre: power metal
Country: USA
Contents: flac/cue/log/covers
Size: 384 MB

Tracklist:
01. Jeffrey - Behind The Gate
02. The Clown
03. Forsaken Child
04. Edge Of Blindness
05. Eve Of Penance
06. Last Dying Breath
07. Psycho Next Door
08. Spirit Suicide
09. GMV 407
10. The Church
11. Whisper God

Playtime: 56:04

Lineup:
Daniel J. Conca - vocals
Mark Briody - guitars
Chris Kostka - guitars
John Tetley - bass
Rikard Stjernquist - drums

Review
"Dissident Alliance" takes a pretty thrashy direction, sounding nothing very little like "Ample Destruction". Unfortunately this generated a backlash by fans. Also, since this is the first and only Jag Panzer album to not feature Harry Conklin on vocals, it makes this CD seem even further removed from Jag Panzer's galloping past.

New vocalist Daniel J. Conca has a gritty, thrash voice that reminds me of James Hetfield at times, although a clone he is not. Personally I like this disc. There are some good, crunchy riffs, some memorable songs and the vocals seem to fit the mood and vibe of the music.

Most of the material presented here is pretty heavy, pushing the boundaries of thrash and speed metal (ie. "Edge Of Blindness), but overall stay within standard heavy metal walls. Two ballads are found here as well, "Forsaken Child" and "Spirit Suicide". Conca does some clean, melodic vocal singing for these two songs and displays a bit of diversity. Personally I prefer the heavier stuff, but these two songs aren't bad or distracting either.

No Life 'til Metal

EAC log
Code:
Exact Audio Copy V1.0 beta 1 from 15. November 2010

EAC extraction logfile from 19. September 2011, 15:44

Jag Panzer / Dissident Alliance

Used drive  : Optiarc DVD RW AD-7240S   Adapter: 2  ID: 0

Read mode               : Secure
Utilize accurate stream : Yes
Defeat audio cache      : Yes
Make use of C2 pointers : No

Read offset correction                      : 48
Overread into Lead-In and Lead-Out          : No
Fill up missing offset samples with silence : Yes
Delete leading and trailing silent blocks   : No
Null samples used in CRC calculations       : Yes
Used interface                              : Native Win32 interface for Win NT & 2000

Used output format : Internal WAV Routines
Sample format      : 44.100 Hz; 16 Bit; Stereo


TOC of the extracted CD

     Track |   Start  |  Length  | Start sector | End sector
    ---------------------------------------------------------
        1  |  0:00.00 |  7:20.45 |         0    |    33044   
        2  |  7:20.45 |  3:10.55 |     33045    |    47349   
        3  | 10:31.25 |  5:29.12 |     47350    |    72036   
        4  | 16:00.37 |  3:59.23 |     72037    |    89984   
        5  | 19:59.60 |  7:13.27 |     89985    |   122486   
        6  | 27:13.12 |  5:12.38 |    122487    |   145924   
        7  | 32:25.50 |  4:03.60 |    145925    |   164209   
        8  | 36:29.35 |  5:43.65 |    164210    |   189999   
        9  | 42:13.25 |  4:32.00 |    190000    |   210399   
       10  | 46:45.25 |  5:00.62 |    210400    |   232961   
       11  | 51:46.12 |  4:17.63 |    232962    |   252299   


Range status and errors

Selected range

     Filename D:\spiralarch\Jag Panzer - Dissident Alliance.wav

     Peak level 100.0 %
     Extraction speed 0.3 X
     Range quality 100.0 %
     Copy CRC 62E8CBC0
     Copy OK

No errors occurred


AccurateRip summary

Track  1  cannot be verified as accurate (confidence 8)  [51D3CC28], AccurateRip returned [36E89828]
Track  2  cannot be verified as accurate (confidence 8)  [ED691FD0], AccurateRip returned [5B23B206]
Track  3  cannot be verified as accurate (confidence 8)  [00EC494C], AccurateRip returned [044F2322]
Track  4  cannot be verified as accurate (confidence 8)  [814639BA], AccurateRip returned [A1C29BBA]
Track  5  cannot be verified as accurate (confidence 8)  [EEBD90FD], AccurateRip returned [F6D3217D]
Track  6  cannot be verified as accurate (confidence 8)  [4E16F0A3], AccurateRip returned [7A659837]
Track  7  cannot be verified as accurate (confidence 8)  [64281290], AccurateRip returned [A89CE40C]
Track  8  cannot be verified as accurate (confidence 8)  [FDF36155], AccurateRip returned [3B869F55]
Track  9  cannot be verified as accurate (confidence 8)  [E0B9CBB1], AccurateRip returned [C08B0331]
Track 10  cannot be verified as accurate (confidence 8)  [B0EF6FFB], AccurateRip returned [5D5C2F7B]
Track 11  cannot be verified as accurate (confidence 8)  [168707D0], AccurateRip returned [C2FE7950]

No tracks could be verified as accurate
You may have a different pressing from the one(s) in the database

End of status report

==== Log checksum 87AF682AF09405A3927289C3AFDC9F7C1BFC2A5473E478835F637CDCB9F007DF ====


Jag Panzer [1997] [CD] The Fourth Judgement (2007 remaster)
Century Media Records 77671-2

Image

Genre: power metal
Country: USA
Contents: flac/cue/log/covers
Size: 414 MB

Tracklist:
01. Black
02. Call Of The Wild
03. Despair
04. Future Shock
05. Recompense
06. Ready To Strike
07. Tyranny
08. Shadow Thief
09. Sonet Of Sorrow
10. Judgement Day
. . . bonus tracks:
11. Future Shock (demo)
12. Ready To Strike (demo)
13. Black (demo)

Playtime: 53:10

Lineup:
Harry Conklin - vocals
Mark Briody - guitars, keyboards and backing vocals
Joey Tafolla - guitars
John Tetley - bass
Rikard Stjernquist - drums
******
Todd Ehle - violin on 1,9 & 10
Karen Kennedy - backing vocals on 10

Review
This is the sound of classic Jag Panzer - like they'd never been away. After the not so well received "Dissident Alliance", Harry Conklin - he of the almighty voice that graced the nailed in stone classic "Ample Destruction" - returned to the fold. Also back on board was guitarist Joey Tafolla and along with Mark Briody, bassist John Tetley and drummer Rikard Stjernquist, they worked themselves into a frenzy, out of which "The Fourth Judgement" boiled forth.

The last traditional metal album whose strength I likened to a "vanquishing potion" was Manowar's "Battle Hymns". But where that one was a roaring rampage of battle stained warriors trudging on gleefully amidst dirty riffs that pierced like unwashed swords, this one is a grim but theatrical masterpiece with stomping riffs and clean leads that cut as precisely as a cleaver. With Jag Panzer, you don't get the thrills and glory of battle, you get the bloody darkness of it. In all its suffocating might. It is a rich color with a deep, almost tangible hue and inside it is Jag Panzer wading through it and exposing it layer for layer by way of song.

Appropriately enough, the opening track is titled "Black". Harry Conklin is the fucking bringer of ill tidings vocally on this one while Tafolla and Briody's layered guitars make it the more pleasing to the ear. But even more auditorily pleasing is "Shadow Thief" whose prog sensitive solos tremble and shake masterfully with the ultra theatrical dynamics of start n' stop.

All ten tracks make for unforgettable listening. Some like "Future Shock" and "Ready To Strike" are deliberate slabs of nostalgia looking back to the "Ample Destruction" days while others like "Despair" and "Judgement Day" herald the new sound of the band. An unbalanced wall that agitates for more melody while piling on the heavy riffage. "Recompense" has one of the catchiest choruses I have EVER heard in metal and "Sonnet of Sorrow" is a slight verse of introspection that doesn't meander. Overall, an admirable collection.

"The Fourth Judgement" is Jag Panzer unbridled and at their most basic. Every worthy fan should shower it with undying love.

Encyclopaedia Metallum

EAC log
Code:
Exact Audio Copy V1.0 beta 1 from 15. November 2010

EAC extraction logfile from 19. September 2011, 16:39

Jag Panzer / The Fourth Judgement (2007)

Used drive  : Optiarc DVD RW AD-7240S   Adapter: 2  ID: 0

Read mode               : Secure
Utilize accurate stream : Yes
Defeat audio cache      : Yes
Make use of C2 pointers : No

Read offset correction                      : 48
Overread into Lead-In and Lead-Out          : No
Fill up missing offset samples with silence : Yes
Delete leading and trailing silent blocks   : No
Null samples used in CRC calculations       : Yes
Used interface                              : Native Win32 interface for Win NT & 2000

Used output format : Internal WAV Routines
Sample format      : 44.100 Hz; 16 Bit; Stereo


TOC of the extracted CD

     Track |   Start  |  Length  | Start sector | End sector
    ---------------------------------------------------------
        1  |  0:00.00 |  4:57.47 |         0    |    22321   
        2  |  4:57.47 |  3:19.23 |     22322    |    37269   
        3  |  8:16.70 |  4:22.72 |     37270    |    56991   
        4  | 12:39.67 |  3:55.39 |     56992    |    74655   
        5  | 16:35.31 |  4:47.53 |     74656    |    96233   
        6  | 21:23.09 |  2:34.73 |     96234    |   107856   
        7  | 23:58.07 |  3:17.12 |    107857    |   122643   
        8  | 27:15.19 |  5:35.32 |    122644    |   147800   
        9  | 32:50.51 |  2:23.06 |    147801    |   158531   
       10  | 35:13.57 |  6:49.12 |    158532    |   189218   
       11  | 42:02.69 |  3:56.15 |    189219    |   206933   
       12  | 45:59.09 |  2:36.56 |    206934    |   218689   
       13  | 48:35.65 |  4:34.29 |    218690    |   239268   


Range status and errors

Selected range

     Filename D:\spiralarch\Jag Panzer - The Fourth Judgement (2007).wav

     Peak level 100.0 %
     Extraction speed 0.3 X
     Range quality 100.0 %
     Copy CRC B063148A
     Copy OK

No errors occurred


AccurateRip summary

Track  1  cannot be verified as accurate (confidence 4)  [94A7F9B7], AccurateRip returned [16EB1049]
Track  2  cannot be verified as accurate (confidence 4)  [B42A5068], AccurateRip returned [049AE6EE]
Track  3  cannot be verified as accurate (confidence 4)  [ADBC7E3E], AccurateRip returned [E2BDD148]
Track  4  cannot be verified as accurate (confidence 4)  [E249A315], AccurateRip returned [E361A163]
Track  5  cannot be verified as accurate (confidence 4)  [DCD187A3], AccurateRip returned [36B4835F]
Track  6  cannot be verified as accurate (confidence 4)  [A5401CA4], AccurateRip returned [25895B8C]
Track  7  cannot be verified as accurate (confidence 4)  [DC42346E], AccurateRip returned [BFC394B6]
Track  8  cannot be verified as accurate (confidence 4)  [0993E8E5], AccurateRip returned [C63CC971]
Track  9  cannot be verified as accurate (confidence 4)  [AD2EA1EE], AccurateRip returned [8A5D1D88]
Track 10  cannot be verified as accurate (confidence 4)  [8EFF2156], AccurateRip returned [73E4D5D4]
Track 11  cannot be verified as accurate (confidence 4)  [2F06AF65], AccurateRip returned [D8219949]
Track 12  cannot be verified as accurate (confidence 4)  [94A2FA39], AccurateRip returned [C60D60A7]
Track 13  cannot be verified as accurate (confidence 4)  [78630972], AccurateRip returned [80BEBB7A]

No tracks could be verified as accurate
You may have a different pressing from the one(s) in the database

End of status report

==== Log checksum E810F824709A476C663572DAC378267342440CCC533F02502E0F99C8C2A537A4 ====

Перезалил все свои ММТ-шные релизы Jag Panzer. Наверно стоит сюда влить и остальные темы JP, раскиданные по форуму.

_________________
прокъметол - это музыко, от которово есть прок (ы)


Top
 Profile  
 
 
PostPosted: 10 Apr 2017 
Partisanen - nicht kapitulieren!!
User avatar
Joined: 25 Dec 2011
Posts: 5839
Lоcаtion: партизанские леса
Age: 45
Name: Владимир
:thanx:

_________________
One more beer and Heavy Metal and I'm just fine!
старовер, куле... слово "блин" - до сих пор через Ъ говорю


Top
 Profile E-mail  
 
 
PostPosted: 10 Apr 2017 
Хиппей (support team)
User avatar
Joined: 30 Jul 2007
Posts: 97011
Lоcаtion: Киев (Kyiv, UA)
Age: 44
Name: Andrey
spiralarch wrote:
Jag Panzer [1987] Chain Of Command (2004 remaster)

:thanx:

mirror: Depos l Narod l M-Cloud

_________________


Top
 Profile E-mail  
 
 
PostPosted: 10 Apr 2017 
Хиппей (support team)
User avatar
Joined: 30 Jul 2007
Posts: 97011
Lоcаtion: Киев (Kyiv, UA)
Age: 44
Name: Andrey
VARVAAR
дядя Миш, я дискографию леплю, надо рип сделать...
Отдать надо, понимаешь, дань уважения группе :lob:

Лучше бы материально помогли ей, а не воровали наворованное :crazy:

_________________


Top
 Profile E-mail  
 
 
PostPosted: 10 Apr 2017 
дядя Миша
User avatar
Joined: 17 Oct 2008
Posts: 2801
Lоcаtion: USSR
Age: 55
Name: Khy
Scatterbrain
Ты себя сам забанить не хочешь на пару неделек, а то чет словечками кидаешься бледнолиций.


Top
 Profile  
 
 
PostPosted: 10 Apr 2017 
Power Metal Maniac
User avatar
Joined: 09 Aug 2008
Posts: 5924
Lоcаtion: Москва
Age: 39
Name: Егор
spiralarch wrote:
Jag Panzer [1994] [CD] Dissident Alliance
Genre: power metal

да какой там Павер (( Грув долбанный, лучше бы вообще не записывали его

_________________
Long Live Metal!


Top
 Profile  
 
 
PostPosted: 10 Apr 2017 
Прокъмитолист
User avatar
Joined: 12 Aug 2007
Posts: 6252
Lоcаtion: Санктъ-Петербуркъ
Age: 50
Name: Олекъ
Егор, тут про другой павер, тебе сюда нинада )

_________________
прокъметол - это музыко, от которово есть прок (ы)


Top
 Profile  
 
 
PostPosted: 10 Apr 2017 
Power Metal Maniac
User avatar
Joined: 09 Aug 2008
Posts: 5924
Lоcаtion: Москва
Age: 39
Name: Егор
Нет там никакого Павера на альбоме 1994. Совсем.

_________________
Long Live Metal!


Top
 Profile  
 
 
PostPosted: 10 Apr 2017 
консэрваторъ
Joined: 11 Aug 2007
Posts: 14416
Lоcаtion: Псков
Age: 43
Name: Сергей
Кто б тему переназвал и первый пост подремонил... :oops:

_________________
THRASH 'EM ALL


Top
 Profile E-mail  
 
 
PostPosted: 10 Apr 2017 
Хиппей (support team)
User avatar
Joined: 30 Jul 2007
Posts: 97011
Lоcаtion: Киев (Kyiv, UA)
Age: 44
Name: Andrey
spiralarch wrote:
Jag Panzer [1994] [CD] Dissident Alliance

:thanx:

mirror: Depos l Narod l M-Cloud

_________________


Top
 Profile E-mail  
 
 
PostPosted: 10 Apr 2017 
Рарник и трушник
User avatar
Joined: 25 Dec 2009
Posts: 7176
Lоcаtion: Москва
Age: 52
Name: Виталий
EG Power wrote:
да какой там Павер (( Грув долбанный, лучше бы вообще не записывали его

Именно поэтому я цыд в своё время не покупал, хотя Панцеров собирал. Именно долбанный грув. :vic:


Top
 Profile  
 
 
PostPosted: 10 Apr 2017 
Хиппей (support team)
User avatar
Joined: 30 Jul 2007
Posts: 97011
Lоcаtion: Киев (Kyiv, UA)
Age: 44
Name: Andrey
spiralarch wrote:
Jag Panzer [1997] [CD] The Fourth Judgement (2007 remaster)

:thanx:

mirror: Depos l Narod l M-Cloud

_________________


Top
 Profile E-mail  
 
 
PostPosted: 10 Apr 2017 
Хиппей (support team)
User avatar
Joined: 30 Jul 2007
Posts: 97011
Lоcаtion: Киев (Kyiv, UA)
Age: 44
Name: Andrey
Коньячок, дядь Миш?
Или уже водочка-с?

_________________


Top
 Profile E-mail  
 
 
PostPosted: 10 Apr 2017 
Персональный статус
Joined: 16 Jan 2011
Posts: 482
Lоcаtion: Россия
Name: Александр
Да. Великая, легендарная, "культовая" группа. Если составить список 100 лучших металических альбомов всех времен и народов, то "Ample Destruction" будет, уверен на одном из первых мест. Впрочем в рекламе этот альбом не нуждается, вряд ли кто его не слышал и вряд ли кому он не нравится. К большому сожалению, все остальные альбомы этой замечательной группы гораздо слабее, ни один и близко не подошел к этому шедевру. трудно сказать отчего так.

Также есть еще одна замечательная группа, состоящая из участников этой - Titan Force. Но там музыка уже не ураганно-забойная как в этом альбоме, а медленный, тяжелый но печальный пауэр-прог, что то вроде Queensryche, Lethal и Crimson Glory. Впрочем и ту группу, наверняка все давно слышали...


Top
 Profile E-mail  
 
 
PostPosted: 11 Apr 2017 
А может смените мне статус?..
User avatar
Joined: 04 Jul 2009
Posts: 612
Age: 44
Name: dima
дискографию уже приготовил, жду Ample Destruction

Ищу сканы на
1987 - Chain Of Command [1987, Reborn Classics, RC 1001, Germany]
2001 - Mechanized Warfare [Century Media, 77369-2, Germany]

если у кого вдруг есть полные, прошу поделиться


Top
 Profile E-mail  
 
 
PostPosted: 11 Apr 2017 
Состояние Сергей
Joined: 18 Aug 2007
Posts: 2310
Lоcаtion: Владивосток
Age: 42
Name: Николай Николаевич
deminbek wrote:
дискографию уже приготовил

если это очередная гигантская дискография в лучших традициях deminbek, то будет здорово :lob:


Top
 Profile  
 
 
PostPosted: 11 Apr 2017 
Прокъмитолист
User avatar
Joined: 12 Aug 2007
Posts: 6252
Lоcаtion: Санктъ-Петербуркъ
Age: 50
Name: Олекъ
deminbek wrote:
1987 - Chain Of Command [1987, Reborn Classics, RC 1001, Germany]

это который Jag Panzer + Majesty? есть задник и фронт (разворот). надо?

_________________
прокъметол - это музыко, от которово есть прок (ы)


Top
 Profile  
 
Display posts from previous:  Sort by  
Post new topic Reply to topic  [ 104 posts ]  Go to page Previous  1, 2, 3, 4, 5, 6  Next

All times are UTC + 3 hours


Who is online

Users browsing this forum: No registered users and 1 guest


You cannot post new topics in this forum
You cannot reply to topics in this forum
You cannot edit your posts in this forum
You cannot delete your posts in this forum
You cannot post attachments in this forum

Search for:
Яндекс.Метрика
Powered by phpBB © 2000, 2002, 2005, 2007 phpBB Group