\m/ 80's metal \m/

Информационно-аналитический форум "80 см пыли" (In Search We Trust) "У нас никто никуда не спешит"
Железнодорожная биржа - RailAgent
It is currently 16 Dec 2017

All times are UTC + 3 hours

Spoiler
Chat - temporary registration for foreign users (please leave your application here)







Post new topic Reply to topic  [ 8 posts ] 
Author Message
 
PostPosted: 13 Oct 2014 
Генеральный thrasher
User avatar
Joined: 03 Oct 2008
Posts: 3255
Lоcаtion: Ханты-Мансийский АО
Age: 42
Name: Сергей
Image

Year:2011
Style:Thrash Metal
Country:Brazil
Audio:Flac+Cue+Log+Scans
Size:284Mb
Source:my CD
Label:Self-Released

Line-Up:
Valda - bass
Célio Jr. - guitars
Cícero - vocals
Carlos Lana - drums

Tracklist:
01. Taking Life To Save Life 05:23
02. Shadows Of Reality 05:15
03. Free Words To Fight 03:46
04. Lost In Collapse 04:39
05. The Last Awakening 04:43
06. Faces Of Wax 04:48
07. UnderCurrents 04:52

"Cue"
REM GENRE "Thrash Metal"
REM DATE 2011
REM DISCID 5907D807
REM COMMENT "ExactAudioCopy v0.99pb5"
PERFORMER "Juggernaut"
TITLE "Ground Zero Conflict"
FILE "Juggernaut - Ground Zero Conflict.flac" WAVE
TRACK 01 AUDIO
TITLE "Taking Life To Save Life"
PERFORMER "Juggernaut"
FLAGS DCP
INDEX 01 00:00:00
TRACK 02 AUDIO
TITLE "Shadows of Reality"
PERFORMER "Juggernaut"
FLAGS DCP
INDEX 01 05:23:11
TRACK 03 AUDIO
TITLE "Free Words to Fight"
PERFORMER "Juggernaut"
FLAGS DCP
INDEX 01 10:39:08
TRACK 04 AUDIO
TITLE "Lost in Collapse"
PERFORMER "Juggernaut"
FLAGS DCP
INDEX 01 14:25:27
TRACK 05 AUDIO
TITLE "The Last Awakening"
PERFORMER "Juggernaut"
FLAGS DCP
INDEX 01 19:04:43
TRACK 06 AUDIO
TITLE "Faces of Wax"
PERFORMER "Juggernaut"
FLAGS DCP
INDEX 01 23:47:43
TRACK 07 AUDIO
TITLE "UnderCurrents"
PERFORMER "Juggernaut"
FLAGS DCP
INDEX 01 28:36:24

"Log"
Exact Audio Copy V0.99 prebeta 5 from 4. May 2009

Отчёт EAC об извлечении, выполненном 20. января 2014, 12:58

Juggernaut / Ground Zero Conflict

Дисковод: MATSHITADVD-RAM UJ8A0AS Adapter: 0 ID: 1

Режим чтения : Достоверность
Использование точного потока : Да
Отключение кэша аудио : Да
Использование указателей C2 : Нет

Коррекция смещения при чтении : 102
Способность читать области Lead-in и Lead-out : Нет
Заполнение пропущенных сэмплов тишиной : Да
Удаление блоков с тишиной в начале и конце : Нет
При вычислениях CRC использовались нулевые сэмплы : Да
Интерфейс : Встроенный Win32-интерфейс для Win NT/2000

Выходной формат : Пользовательский кодировщик
Выбранный битрейт : 1024 kBit/s
Качество : Высокий
Добавление ID3-тэга : Нет
Утилита сжатия : C:\Program Files\Exact Audio Copy\FLAC\FLAC.EXE
Дополнительные параметры : -6 -V -T "ARTIST=%a" -T "TITLE=%t" -T "ALBUM=%g" -T "DATE=%y" -T "TRACKNUMBER=%n" -T "GENRE=%m" -T "COMMENT=%e" %s -o %d


TOC извлечённого CD

Трек | Старт | Длительность | Начальный сектор | Конечный сектор
---------------------------------------------------------------------
1 | 0:00.00 | 5:23.11 | 0 | 24235
2 | 5:23.11 | 5:15.72 | 24236 | 47932
3 | 10:39.08 | 3:46.19 | 47933 | 64901
4 | 14:25.27 | 4:39.16 | 64902 | 85842
5 | 19:04.43 | 4:43.00 | 85843 | 107067
6 | 23:47.43 | 4:48.56 | 107068 | 128723
7 | 28:36.24 | 4:52.33 | 128724 | 150656


Характеристики диапазона извлечения и сообщения об ошибках

Выбранный диапазон

Имя файла C:\Users\эксперт\Music\Juggernaut - Ground Zero Conflict.wav

Пиковый уровень 100.0 %
Качество диапазона 100.0 %
CRC копии F3C7932E
Копирование... OK

Ошибок не произошло


AccurateRip: сводка

Трек 1 нет в базе данных
Трек 2 нет в базе данных
Трек 3 нет в базе данных
Трек 4 нет в базе данных
Трек 5 нет в базе данных
Трек 6 нет в базе данных
Трек 7 нет в базе данных

Ни одного трека нет в базе AccurateRip

Конец отчёта


Ground Zero Conflict

Собственно многие трэш-релизы раздаю на рутрэкере.Но вдруг кто-то из форумчан туда не заглядывает.Пусть они и здесь будут :true:


Top
 Profile  
 
 
PostPosted: 13 Oct 2014 
Хиппей (support team)
User avatar
Joined: 30 Jul 2007
Posts: 97116
Lоcаtion: Киев (Kyiv, UA)
Age: 44
Name: Andrey
:thanx:

mirror: Narod l M-Cloud

_________________


Top
 Profile E-mail  
 
 
PostPosted: 13 Oct 2014 
Прокъмитолист
User avatar
Joined: 12 Aug 2007
Posts: 6256
Lоcаtion: Санктъ-Петербуркъ
Age: 50
Name: Олекъ
thorbeorn wrote:
Собственно многие трэш-релизы раздаю на рутрэкере.Но вдруг кто-то из форумчан туда не заглядывает.Пусть они и здесь будут :true:

я почти не заглядываю, Серёг. так что спасибо за все твои релизы здесь :thanx: :true:

_________________
прокъметол - это музыко, от которово есть прок (ы)


Top
 Profile  
 
 
PostPosted: 13 Oct 2014 
А может смените мне статус?..
User avatar
Joined: 28 Jul 2008
Posts: 903
Lоcаtion: Украина---Днепропетровск
Age: 43
Name: Александр
:thanx:

_________________
Музыка в которой я растворяюсь многих угнетает......


Top
 Profile  
 
 
PostPosted: 13 Oct 2014 
Дежурный по КУПу
User avatar
Joined: 17 Aug 2007
Posts: 5730
Age: 49
Name: Ге
:thanx:

_________________
http://jp-mania.ru/
http://jp-tourdates.ucoz.ru/


Top
 Profile  
 
 
PostPosted: 13 Oct 2014 
Хиппей (support team)
User avatar
Joined: 30 Jul 2007
Posts: 97116
Lоcаtion: Киев (Kyiv, UA)
Age: 44
Name: Andrey
Тоже на Трахторе мало что качаю и тем более отслеживаю, так что весьма признателен здесь :thanx:

Подумал сразу, что возродились те самые Джаггернот, но вижу, страна то не та =)
По музыке в большинстве своём среднетемповой трэш в духе чуть ускоренного.... Celtic Frost. Или облегчённый вариант Sepultura и даже Pestilence & Asphyx.

6-й трэк сходу понравился, остальные так себе. Еще буду слушать. Но общая оценка уже вырисовалась.

4/10

_________________


Top
 Profile E-mail  
 
 
PostPosted: 13 Oct 2014 
Генеральный thrasher
User avatar
Joined: 03 Oct 2008
Posts: 3255
Lоcаtion: Ханты-Мансийский АО
Age: 42
Name: Сергей
Я и сам оттуда уже почти ничего не беру...Больше раздаю.


Top
 Profile  
 
 
PostPosted: 13 Oct 2014 
Alive Again
User avatar
Joined: 17 Dec 2008
Posts: 4444
Lоcаtion: Курск Воронеж Оскол
Age: 43
Name: Дмитрий
заглядываю и туда и сюда, :thanx:


Top
 Profile E-mail  
 
Display posts from previous:  Sort by  
Post new topic Reply to topic  [ 8 posts ] 

All times are UTC + 3 hours


Who is online

Users browsing this forum: No registered users and 1 guest


You cannot post new topics in this forum
You cannot reply to topics in this forum
You cannot edit your posts in this forum
You cannot delete your posts in this forum
You cannot post attachments in this forum

Search for:
Яндекс.Метрика
Powered by phpBB © 2000, 2002, 2005, 2007 phpBB Group