\m/ 80's metal \m/

Информационно-аналитический форум "80 см пыли" (In Search We Trust) "У нас никто никуда не спешит"
Железнодорожная биржа - RailAgent
It is currently 16 Dec 2017

All times are UTC + 3 hours

Spoiler
Chat - temporary registration for foreign users (please leave your application here)







Post new topic Reply to topic  [ 28 posts ]  Go to page Previous  1, 2
Author Message
 
PostPosted: 24 Apr 2014 
Хиппей (support team)
User avatar
Joined: 30 Jul 2007
Posts: 97115
Lоcаtion: Киев (Kyiv, UA)
Age: 44
Name: Andrey
У меня встал :dance: На 11 :oops:

_________________


Top
 Profile E-mail  
 
 
PostPosted: 24 Apr 2014 
Partisanen - nicht kapitulieren!!
User avatar
Joined: 25 Dec 2011
Posts: 5853
Lоcаtion: партизанские леса
Age: 45
Name: Владимир
У меня встал :dance: На 11 :oops:

дык радовацца надо! :benya:

Jacobs Dream 2000 - Jacobs Dream [FLAC]
Image
Year : 2000
Tracks : 12
Playtime : 00:47:53
Size : 359,55 MB
Codec : FLAC/tracks+cue+log/1100 kbps

Tracklist :
01. Kinescope (03:34)
02. Funambulism (04:33)
03. Scape Goat (05:06)
04. Mad House Of Cain (03:01)
05. Tale Of Fears (04:29)
06. Crusade (04:10)
07. Black Watch (03:55)
08. Love & Sorrow (04:15)
09. The Gathering (03:24)
10. Never Surrender (04:13)
11. The Bleeding Tree (03:49)
12. Violent Truth (03:18)

EAC log
Code:
Exact Audio Copy V1.0 beta 2 from 29. April 2011

EAC extraction logfile from 22. September 2011, 13:12

Jacobs Dream / Jacobs Dream

Used drive  : Optiarc DVD RW AD-7231S5   Adapter: 1  ID: 2

Read mode               : Secure
Utilize accurate stream : Yes
Defeat audio cache      : Yes
Make use of C2 pointers : No

Read offset correction                      : 48
Overread into Lead-In and Lead-Out          : No
Fill up missing offset samples with silence : Yes
Delete leading and trailing silent blocks   : No
Null samples used in CRC calculations       : Yes
Used interface                              : Native Win32 interface for Win NT & 2000
Gap handling                                : Appended to previous track

Used output format              : User Defined Encoder
Selected bitrate                : 1024 kBit/s
Quality                         : High
Add ID3 tag                     : No
Command line compressor         : C:\Program Files (x86)\Exact Audio Copy\Flac\flac.exe
Additional command line options : -8 -V -T "ARTIST=%artist%" -T "TITLE=%title%" -T "ALBUM=%albumtitle%" -T "DATE=%year%" -T "TRACKNUMBER=%tracknr%" -T "GENRE=%genre%" -T "PERFORMER=%albuminterpret%" -T "COMPOSER=%composer%" %haslyrics%--tag-from-file=LYRICS


TOC of the extracted CD

     Track |   Start  |  Length  | Start sector | End sector
    ---------------------------------------------------------
        1  |  0:00.00 |  3:34.55 |         0    |    16104   
        2  |  3:34.55 |  4:33.52 |     16105    |    36631   
        3  |  8:08.32 |  5:06.73 |     36632    |    59654   
        4  | 13:15.30 |  3:01.12 |     59655    |    73241   
        5  | 16:16.42 |  4:29.58 |     73242    |    93474   
        6  | 20:46.25 |  4:10.40 |     93475    |   112264   
        7  | 24:56.65 |  3:55.72 |    112265    |   129961   
        8  | 28:52.62 |  4:15.03 |    129962    |   149089   
        9  | 33:07.65 |  3:24.17 |    149090    |   164406   
       10  | 36:32.07 |  4:13.08 |    164407    |   183389   
       11  | 40:45.15 |  3:49.17 |    183390    |   200581   
       12  | 44:34.32 |  3:18.53 |    200582    |   215484   


Track  1

     Filename C:\Users\Wraith\Desktop\EAC\Jacobs Dream - Jacobs Dream FLAC\01 - Kinescope.wav

     Pre-gap length  0:00:02.00

     Peak level 95.2 %
     Extraction speed 1.8 X
     Track quality 100.0 %
     Test CRC A0D29680
     Copy CRC A0D29680
     Track not present in AccurateRip database
     Copy OK

Track  2

     Filename C:\Users\Wraith\Desktop\EAC\Jacobs Dream - Jacobs Dream FLAC\02 - Funambulism.wav

     Peak level 95.8 %
     Extraction speed 2.1 X
     Track quality 100.0 %
     Test CRC 6A93A269
     Copy CRC 6A93A269
     Track not present in AccurateRip database
     Copy OK

Track  3

     Filename C:\Users\Wraith\Desktop\EAC\Jacobs Dream - Jacobs Dream FLAC\03 - Scape Goat.wav

     Pre-gap length  0:00:02.10

     Peak level 96.1 %
     Extraction speed 2.3 X
     Track quality 100.0 %
     Test CRC 93D748B4
     Copy CRC 93D748B4
     Track not present in AccurateRip database
     Copy OK

Track  4

     Filename C:\Users\Wraith\Desktop\EAC\Jacobs Dream - Jacobs Dream FLAC\04 - Mad House Of Cain.wav

     Pre-gap length  0:00:03.05

     Peak level 94.4 %
     Extraction speed 2.3 X
     Track quality 100.0 %
     Test CRC F4702326
     Copy CRC F4702326
     Track not present in AccurateRip database
     Copy OK

Track  5

     Filename C:\Users\Wraith\Desktop\EAC\Jacobs Dream - Jacobs Dream FLAC\05 - Tale Of Fears.wav

     Peak level 94.2 %
     Extraction speed 2.7 X
     Track quality 100.0 %
     Test CRC 03D04241
     Copy CRC 03D04241
     Track not present in AccurateRip database
     Copy OK

Track  6

     Filename C:\Users\Wraith\Desktop\EAC\Jacobs Dream - Jacobs Dream FLAC\06 - Crusade.wav

     Pre-gap length  0:00:01.35

     Peak level 94.4 %
     Extraction speed 2.8 X
     Track quality 100.0 %
     Test CRC 9377462F
     Copy CRC 9377462F
     Track not present in AccurateRip database
     Copy OK

Track  7

     Filename C:\Users\Wraith\Desktop\EAC\Jacobs Dream - Jacobs Dream FLAC\07 - Black Watch.wav

     Pre-gap length  0:00:01.23

     Peak level 94.4 %
     Extraction speed 2.9 X
     Track quality 100.0 %
     Test CRC 6AD1D7B5
     Copy CRC 6AD1D7B5
     Track not present in AccurateRip database
     Copy OK

Track  8

     Filename C:\Users\Wraith\Desktop\EAC\Jacobs Dream - Jacobs Dream FLAC\08 - Love & Sorrow.wav

     Pre-gap length  0:00:03.70

     Peak level 94.4 %
     Extraction speed 3.1 X
     Track quality 100.0 %
     Test CRC 2D3304B3
     Copy CRC 2D3304B3
     Track not present in AccurateRip database
     Copy OK

Track  9

     Filename C:\Users\Wraith\Desktop\EAC\Jacobs Dream - Jacobs Dream FLAC\09 - The Gathering.wav

     Pre-gap length  0:00:01.30

     Peak level 94.4 %
     Extraction speed 3.1 X
     Track quality 100.0 %
     Test CRC 51C5F379
     Copy CRC 51C5F379
     Track not present in AccurateRip database
     Copy OK

Track 10

     Filename C:\Users\Wraith\Desktop\EAC\Jacobs Dream - Jacobs Dream FLAC\10 - Never Surrender.wav

     Pre-gap length  0:00:02.05

     Peak level 93.9 %
     Extraction speed 3.3 X
     Track quality 100.0 %
     Test CRC 7A8E2C57
     Copy CRC 7A8E2C57
     Track not present in AccurateRip database
     Copy OK

Track 11

     Filename C:\Users\Wraith\Desktop\EAC\Jacobs Dream - Jacobs Dream FLAC\11 - The Bleeding Tree.wav

     Pre-gap length  0:00:01.35

     Peak level 93.8 %
     Extraction speed 3.4 X
     Track quality 100.0 %
     Test CRC 6BF43603
     Copy CRC 6BF43603
     Track not present in AccurateRip database
     Copy OK

Track 12

     Filename C:\Users\Wraith\Desktop\EAC\Jacobs Dream - Jacobs Dream FLAC\12 - Violent Truth.wav

     Pre-gap length  0:00:02.20

     Peak level 93.9 %
     Extraction speed 3.5 X
     Track quality 100.0 %
     Test CRC 2350A016
     Copy CRC 2350A016
     Track not present in AccurateRip database
     Copy OK


None of the tracks are present in the AccurateRip database

No errors occurred

End of status report

==== Log checksum C067DADCFB4E99553827C9D9E738B74B73AF6B5576C73F07B3E32D631D17B64F ====

CUE
Code:
REM GENRE Metal
REM DATE 2000
REM DISCID CC0B390C
REM COMMENT "ExactAudioCopy v1.0b2"
PERFORMER "Jacobs Dream"
TITLE "Jacobs Dream"
FILE "01 - Kinescope.wav" WAVE
  TRACK 01 AUDIO
    TITLE "Kinescope"
    PERFORMER "Jacobs Dream"
    INDEX 01 00:00:00
FILE "02 - Funambulism.wav" WAVE
  TRACK 02 AUDIO
    TITLE "Funambulism"
    PERFORMER "Jacobs Dream"
    INDEX 01 00:00:00
  TRACK 03 AUDIO
    TITLE "Scape Goat"
    PERFORMER "Jacobs Dream"
    INDEX 00 04:31:42
FILE "03 - Scape Goat.wav" WAVE
    INDEX 01 00:00:00
  TRACK 04 AUDIO
    TITLE "Mad House Of Cain"
    PERFORMER "Jacobs Dream"
    INDEX 00 05:03:68
FILE "04 - Mad House Of Cain.wav" WAVE
    INDEX 01 00:00:00
FILE "05 - Tale Of Fears.wav" WAVE
  TRACK 05 AUDIO
    TITLE "Tale Of Fears"
    PERFORMER "Jacobs Dream"
    INDEX 01 00:00:00
  TRACK 06 AUDIO
    TITLE "Crusade"
    PERFORMER "Jacobs Dream"
    INDEX 00 04:28:23
FILE "06 - Crusade.wav" WAVE
    INDEX 01 00:00:00
  TRACK 07 AUDIO
    TITLE "Black Watch"
    PERFORMER "Jacobs Dream"
    INDEX 00 04:09:17
FILE "07 - Black Watch.wav" WAVE
    INDEX 01 00:00:00
  TRACK 08 AUDIO
    TITLE "Love & Sorrow"
    PERFORMER "Jacobs Dream"
    INDEX 00 03:52:02
FILE "08 - Love & Sorrow.wav" WAVE
    INDEX 01 00:00:00
  TRACK 09 AUDIO
    TITLE "The Gathering"
    PERFORMER "Jacobs Dream"
    INDEX 00 04:13:48
FILE "09 - The Gathering.wav" WAVE
    INDEX 01 00:00:00
  TRACK 10 AUDIO
    TITLE "Never Surrender"
    PERFORMER "Jacobs Dream"
    INDEX 00 03:22:12
FILE "10 - Never Surrender.wav" WAVE
    INDEX 01 00:00:00
  TRACK 11 AUDIO
    TITLE "The Bleeding Tree"
    PERFORMER "Jacobs Dream"
    INDEX 00 04:11:48
FILE "11 - The Bleeding Tree.wav" WAVE
    INDEX 01 00:00:00
  TRACK 12 AUDIO
    TITLE "Violent Truth"
    PERFORMER "Jacobs Dream"
    INDEX 00 03:46:72
FILE "12 - Violent Truth.wav" WAVE
    INDEX 01 00:00:00


mail.ru

_________________
One more beer and Heavy Metal and I'm just fine!
старовер, куле... слово "блин" - до сих пор через Ъ говорю


Top
 Profile E-mail  
 
 
PostPosted: 24 Apr 2014 
Хиппей (support team)
User avatar
Joined: 30 Jul 2007
Posts: 97115
Lоcаtion: Киев (Kyiv, UA)
Age: 44
Name: Andrey
:thanx: Радываюсь :dance:

_________________


Top
 Profile E-mail  
 
 
PostPosted: 25 Apr 2014 
Почётный металлург
User avatar
Joined: 15 Sep 2007
Posts: 4357
Lоcаtion: Хабаровск
Age: 57
Name: чуть выше
32warlord1 wrote:
дык радовацца надо!

уж я как рад! и за Андрея, и за себя! :smile: Огромнейшее спасибо! :true: :drink: :kamrad:

_________________
Коль будешь людей ты ослами честить,
тебе человеком меж них не прослыть!
(Саади, персидский поэт, 13в.)


Top
 Profile  
 
 
PostPosted: 25 Apr 2014 
Хиппей (support team)
User avatar
Joined: 30 Jul 2007
Posts: 97115
Lоcаtion: Киев (Kyiv, UA)
Age: 44
Name: Andrey
:thanx: Взаимно.
А теперь на 7... встал :shok: :cry:

_________________


Top
 Profile E-mail  
 
 
PostPosted: 26 Apr 2014 
Почётный металлург
User avatar
Joined: 15 Sep 2007
Posts: 4357
Lоcаtion: Хабаровск
Age: 57
Name: чуть выше
Наверное многа раз еще встанет! ;)

_________________
Коль будешь людей ты ослами честить,
тебе человеком меж них не прослыть!
(Саади, персидский поэт, 13в.)


Top
 Profile  
 
 
PostPosted: 26 Apr 2014 
Хиппей (support team)
User avatar
Joined: 30 Jul 2007
Posts: 97115
Lоcаtion: Киев (Kyiv, UA)
Age: 44
Name: Andrey
Уже докачался, но не падает :shok:

_________________


Top
 Profile E-mail  
 
 
PostPosted: 26 Apr 2014 
Хиппей (support team)
User avatar
Joined: 30 Jul 2007
Posts: 97115
Lоcаtion: Киев (Kyiv, UA)
Age: 44
Name: Andrey
Jacob's dream [2000] [CD] Jacob's Dream [EAC-APE] by miguelito [MeTaLMaDNeSS.TeaM].rar :thanx:

mirror: Narod l M-Cloud

Format: ape + cue + log + no scans

log
EAC extraction logfile from 12. April 2008, 22:04 for CD
Jacobs Dream / Jacobs Dream

Used drive : HL-DT-STDVD-RAM GSA-H20N Adapter: 5 ID: 1
Read mode : Secure with NO C2, accurate stream, disable cache
Read offset correction : 102
Overread into Lead-In and Lead-Out : No

Used output format : C:\Archivos de programa\Exact Audio Copy\MAC.EXE (Monkey's Audio Lossless Encoder)
High Lossless Compression

Other options :
Fill up missing offset samples with silence : Yes
Delete leading and trailing silent blocks : No
Installed external ASPI interface


Range status and errors
Selected range
Filename D:\MI MUSICA\Jacob┤s Dream.wav

Peak level 96.1 %
Range quality 100.0 %
CRC BB3FCE46
Copy OK

No errors occured

End of status report

cue
PERFORMER "Jacobs Dream"
TITLE "Jacobs Dream"
FILE "Jacob┤s Dream.ape" WAVE
TRACK 01 AUDIO
TITLE "Kinescope"
PERFORMER "Jacobs Dream"
INDEX 01 00:00:00
TRACK 02 AUDIO
TITLE "Funambulism"
PERFORMER "Jacobs Dream"
INDEX 01 03:34:55
TRACK 03 AUDIO
TITLE "Scape Goat"
PERFORMER "Jacobs Dream"
INDEX 00 08:06:22
INDEX 01 08:08:32
TRACK 04 AUDIO
TITLE "Mad House Of Cain"
PERFORMER "Jacobs Dream"
INDEX 00 13:12:25
INDEX 01 13:15:30
TRACK 05 AUDIO
TITLE "Tale Of Fears"
PERFORMER "Jacobs Dream"
INDEX 01 16:16:42
TRACK 06 AUDIO
TITLE "Crusade"
PERFORMER "Jacobs Dream"
INDEX 00 20:44:65
INDEX 01 20:46:25
TRACK 07 AUDIO
TITLE "Black Watch"
PERFORMER "Jacobs Dream"
INDEX 00 24:55:42
INDEX 01 24:56:65
TRACK 08 AUDIO
TITLE "Love & Sorrow"
PERFORMER "Jacobs Dream"
INDEX 00 28:48:67
INDEX 01 28:52:62
TRACK 09 AUDIO
TITLE "The Gathering"
PERFORMER "Jacobs Dream"
INDEX 00 33:06:35
INDEX 01 33:07:65
TRACK 10 AUDIO
TITLE "Never Surrender"
PERFORMER "Jacobs Dream"
INDEX 00 36:30:02
INDEX 01 36:32:07
TRACK 11 AUDIO
TITLE "The Bleeding Tree"
PERFORMER "Jacobs Dream"
INDEX 00 40:43:55
INDEX 01 40:45:15
TRACK 12 AUDIO
TITLE "Violent Truth"
PERFORMER "Jacobs Dream"
INDEX 00 44:32:12
INDEX 01 44:34:32

_________________


Top
 Profile E-mail  
 
Display posts from previous:  Sort by  
Post new topic Reply to topic  [ 28 posts ]  Go to page Previous  1, 2

All times are UTC + 3 hours


Who is online

Users browsing this forum: No registered users and 1 guest


You cannot post new topics in this forum
You cannot reply to topics in this forum
You cannot edit your posts in this forum
You cannot delete your posts in this forum
You cannot post attachments in this forum

Search for:
Яндекс.Метрика
Powered by phpBB © 2000, 2002, 2005, 2007 phpBB Group