\m/ 80's metal \m/

Информационно-аналитический форум "80 см пыли" (In Search We Trust) "У нас никто никуда не спешит"
Железнодорожная биржа - RailAgent
It is currently 16 Dec 2017

All times are UTC + 3 hours

Spoiler
Chat - temporary registration for foreign users (please leave your application here)







Post new topic Reply to topic  [ 2 posts ] 
Author Message
 
PostPosted: 15 Jul 2012 
Хиппей (support team)
User avatar
Joined: 30 Jul 2007
Posts: 97115
Lоcаtion: Киев (Kyiv, UA)
Age: 44
Name: Andrey
Joshua Perahia - 1983 - The Hand Is Quicker Than The Eye (reissued 2001) [flac]

Image

Genre: Melodic Hard Rock
Location: USA
Format: flac + cue +log + scans
Size: 260 Mb


Line-up:

Joshua Perahia - guitars, lead & back vocals
Stephen Fontaine - lead & back vocals
Donnie Gougeon - keyboards, back vocals
Mahlon Hawk - bass, back vocals
Tony Zaccaglin - drums

    1. Falling Again - 04:21
    2. November Is Going Away - 04:59
    3. Sweet 'Lil Hurricane - 03:13
    4. A Song for Lisa - 04:22
    5. Let's Breakaway - 04:49
    6. Broken Dream - 03:03
    7. Flying High - 04:19
    8. Portrait of a Woman - 04:21

    TPT: 33:19

Источник: копия рипы пришла в скайп, опознаём автора рипа по логу :thanx:

Альбомчик средненький. Но слушается местами приятно. Голос вокалиста то подростковый, то довольно-таки взрослый. Вот это разногласие немного и смущает...
Некоторые источники утверждают, что у солиста 4 октавы. Хз, может быть, но я не знаю, где они у него именно расположились... :vic:

5/10

MultiUp l Narod

log
Exact Audio Copy V0.99 prebeta 1 from 25. May 2007

EAC extraction logfile from 2. July 2012, 19:51

Joshua Perahia / The Hand Is Quicker Than The Eye

Used drive : Optiarc DVD RW AD-7201S Adapter: 1 ID: 1

Read mode : Secure
Utilize accurate stream : Yes
Defeat audio cache : Yes
Make use of C2 pointers : No

Read offset correction : 48
Overread into Lead-In and Lead-Out : No
Fill up missing offset samples with silence : Yes
Delete leading and trailing silent blocks : No
Used interface : Installed external ASPI interface

Used output format : Internal WAV Routines
Sample format : 44.100 Hz; 16 Bit; Stereo


TOC of the extracted CD

Track | Start | Length | Start sector | End sector
---------------------------------------------------------
1 | 0:00.00 | 4:18.15 | 0 | 19364
2 | 4:18.15 | 4:56.45 | 19365 | 41609
3 | 9:14.60 | 3:13.25 | 41610 | 56109
4 | 12:28.10 | 4:18.10 | 56110 | 75469
5 | 16:46.20 | 4:46.60 | 75470 | 96979
6 | 21:33.05 | 3:02.15 | 96980 | 110644
7 | 24:35.20 | 4:17.25 | 110645 | 129944
8 | 28:52.45 | 4:26.70 | 129945 | 149964


Range status and errors

Selected range

Filename D:\Перезалив Рипы на Darksage\Joshua Perahia - The Hand Is Quicker Than The Eye.wav

Peak level 100.0 %
Range quality 100.0 %
Copy CRC B2F8BFBC
Copy OK

No errors occurred

End of status report

cue
REM GENRE "Hard Rock"
REM DATE 1983
REM DISCID 6207CF08
REM COMMENT "ExactAudioCopy v0.99pb1"
PERFORMER "Joshua Perahia"
TITLE "The Hand Is Quicker Than The Eye"
FILE "Joshua Perahia - The Hand Is Quicker Than The Eye.wav" WAVE
TRACK 01 AUDIO
TITLE "Falling Again"
PERFORMER "Joshua Perahia"
INDEX 01 00:00:00
TRACK 02 AUDIO
TITLE "November Is Going Away"
PERFORMER "Joshua Perahia"
FLAGS DCP
INDEX 01 04:18:15
TRACK 03 AUDIO
TITLE "Sweet 'Lil Hurricane"
PERFORMER "Joshua Perahia"
FLAGS DCP
INDEX 01 09:14:60
TRACK 04 AUDIO
TITLE "A Song For Lisa"
PERFORMER "Joshua Perahia"
FLAGS DCP
INDEX 01 12:28:10
TRACK 05 AUDIO
TITLE "Let's Breakaway"
PERFORMER "Joshua Perahia"
INDEX 01 16:46:20
TRACK 06 AUDIO
TITLE "Broken Dream"
PERFORMER "Joshua Perahia"
FLAGS DCP
INDEX 01 21:33:05
TRACK 07 AUDIO
TITLE "Flying High"
PERFORMER "Joshua Perahia"
FLAGS DCP
INDEX 01 24:35:20
TRACK 08 AUDIO
TITLE "Portrait Of A Woman"
PERFORMER "Joshua Perahia"
FLAGS DCP
INDEX 01 28:52:45

spectrum
Image

_________________


Top
 Profile E-mail  
 
 
PostPosted: 25 Jul 2012 
Пионэръ
Joined: 22 Jun 2010
Posts: 16
Lоcаtion: Madrid
Name: Xose
Not the best Joshua's album but a great upload.

Thanks a lot!!


Top
 Profile E-mail  
 
Display posts from previous:  Sort by  
Post new topic Reply to topic  [ 2 posts ] 

All times are UTC + 3 hours


Who is online

Users browsing this forum: No registered users and 1 guest


You cannot post new topics in this forum
You cannot reply to topics in this forum
You cannot edit your posts in this forum
You cannot delete your posts in this forum
You cannot post attachments in this forum

Search for:
Яндекс.Метрика
Powered by phpBB © 2000, 2002, 2005, 2007 phpBB Group