\m/ 80's metal \m/

Информационно-аналитический форум "80 см пыли" (In Search We Trust) "У нас никто никуда не спешит"
Железнодорожная биржа - RailAgent
It is currently 14 Dec 2017

All times are UTC + 3 hours

Spoiler
Chat - temporary registration for foreign users (please leave your application here)







Post new topic Reply to topic  [ 6 posts ] 
Author Message
 
PostPosted: 03 Jan 2012 
Труъ
User avatar
Joined: 06 May 2009
Posts: 131
Lоcаtion: Владивосток
Age: 31
Name: Александр
Image

Band: Jack Starr's Burning Starr
Album: No Turning Back!
Year: 1986 (1998 - издание на CD)
Label: Sentinel Steel Records (Каталожный номер: Steel 003)
Genre: Speed / Heavy / Power Metal
Country: United States
Format: Flac + Log + Cue
Size: 451 MB
Scans: Отдельная папка внутри архива
Релизёр: salvation

Line-Up:
Mike Tirelli - Vocals
Jack Starr - Guitars
Keith Collins - Bass
Mark Edwards - Drums
David DeFeis - Keyboards

Tracklist:
  1. No Turning Back (03:47)
  2. Light in the Dark (03:40)
  3. Fire and Rain (03:22)
  4. Call of the Wild (04:14)
  5. Road Warrior (03:39)
  6. Prelude in C Minor (01:13)
  7. Evil Never Sleeps (03:27)
  8. Path of Destruction (03:39)
  9. M-1 (00:46)
  10. Avenging Angel (04:05)
  11. Run for Your Life (05:16)
  12. Coda (01:19)
  13. Burning Starr (re-mixed version) (02:57)
  14. Metal Generation (re-mixed version) (04:11)

log
Exact Audio Copy V1.0 beta 3 from 29. August 2011

Отчёт EAC об извлечении, выполненном 3. января 2012, 19:10

Jack Starr's Burning Starr / No Turning Back! [Reissue 1998]

Дисковод: TSSTcorpCDDVDW TS-L633J Adapter: 0 ID: 1

Режим чтения : Достоверность
Использование точного потока : Да
Отключение кэша аудио : Да
Использование указателей C2 : Нет

Коррекция смещения при чтении : 6
Способность читать области Lead-in и Lead-out : Нет
Заполнение пропущенных сэмплов тишиной : Да
Удаление блоков с тишиной в начале и конце : Нет
При вычислениях CRC использовались нулевые сэмплы : Да
Интерфейс : Встроенный Win32-интерфейс для Win NT/2000

Выходной формат : Пользовательский кодировщик
Выбранный битрейт : 1024 kBit/s
Качество : Высокий
Добавление ID3-тега : Нет
Утилита сжатия : C:\Program Files\Exact Audio Copy\Flac\flac.exe
Дополнительные параметры : -V -8 -T "Date=%year%" -T "Genre=%genre%" %source%


TOC извлечённого CD

Трек | Старт | Длительность | Начальный сектор | Конечный сектор
---------------------------------------------------------------------
1 | 0:00.30 | 3:47.30 | 30 | 17084
2 | 3:47.60 | 3:40.19 | 17085 | 33603
3 | 7:28.04 | 3:22.13 | 33604 | 48766
4 | 10:50.17 | 4:13.58 | 48767 | 67799
5 | 15:04.00 | 3:39.12 | 67800 | 84236
6 | 18:43.12 | 1:12.73 | 84237 | 89709
7 | 19:56.10 | 3:27.28 | 89710 | 105262
8 | 23:23.38 | 3:38.38 | 105263 | 121650
9 | 27:02.01 | 0:46.06 | 121651 | 125106
10 | 27:48.07 | 4:04.52 | 125107 | 143458
11 | 31:52.59 | 5:16.24 | 143459 | 167182
12 | 37:09.08 | 1:19.12 | 167183 | 173119
13 | 38:28.20 | 2:57.14 | 173120 | 186408
14 | 41:25.34 | 4:10.60 | 186409 | 205218


Характеристики диапазона извлечения и сообщения об ошибках

Выбранный диапазон

Имя файла C:\Users\1\Downloads\2011 - Virgin Steele - Age of Consent\Jack Starr's Burning Starr - No Turning Back! [Reissue 1998].wav

Пиковый уровень 98.8 %
Скорость извлечения 2.8 X
Качество диапазона 100.0 %
CRC теста 0EB7B912
CRC копии 0EB7B912
Копирование... OK

Ошибок не произошло


AccurateRip: сводка

Трек 1 : извлечено точно (доверие 6) [CC52C89F] (AR v1)
Трек 2 : извлечено точно (доверие 6) [EA36A68A] (AR v1)
Трек 3 : извлечено точно (доверие 6) [93E88E94] (AR v1)
Трек 4 : извлечено точно (доверие 6) [FFFACE4B] (AR v1)
Трек 5 : извлечено точно (доверие 6) [08BAA2EA] (AR v1)
Трек 6 : извлечено точно (доверие 6) [548215DD] (AR v1)
Трек 7 : извлечено точно (доверие 6) [C140B1C3] (AR v1)
Трек 8 : извлечено точно (доверие 6) [FA897699] (AR v1)
Трек 9 : извлечено точно (доверие 6) [1E6C3DC7] (AR v1)
Трек 10 : извлечено точно (доверие 6) [EC62EAD0] (AR v1)
Трек 11 : извлечено точно (доверие 6) [EA8B538A] (AR v1)
Трек 12 : извлечено точно (доверие 6) [9848044B] (AR v1)
Трек 13 : извлечено точно (доверие 6) [F555115D] (AR v1)
Трек 14 : извлечено точно (доверие 6) [D6144DD8] (AR v1)

Все треки извлечены точно

Конец отчёта

==== Контрольная сумма отчёта 403BCBCCB9F42C01A2F4AA699545970CC015199BBE37BED8CB4A6A02CE832306 ====

cue
REM GENRE "Heavy Metal"
REM DATE 1986
REM DISCID A70AB00E
REM COMMENT "ExactAudioCopy v1.0b3"
PERFORMER "Jack Starr's Burning Starr"
TITLE "No Turning Back! [Reissue 1998]"
FILE "Jack Starr's Burning Starr - No Turning Back! [Reissue 1998].flac" WAVE
TRACK 01 AUDIO
TITLE "No Turning Back"
PERFORMER "Jack Starr's Burning Starr"
INDEX 00 00:00:00
INDEX 01 00:00:30
TRACK 02 AUDIO
TITLE "Light In The Dark"
PERFORMER "Jack Starr's Burning Starr"
INDEX 01 03:47:60
TRACK 03 AUDIO
TITLE "Fire And Rain"
PERFORMER "Jack Starr's Burning Starr"
INDEX 01 07:28:04
TRACK 04 AUDIO
TITLE "Call Of The Wild"
PERFORMER "Jack Starr's Burning Starr"
INDEX 01 10:50:17
TRACK 05 AUDIO
TITLE "Road Warrior"
PERFORMER "Jack Starr's Burning Starr"
INDEX 01 15:04:00
TRACK 06 AUDIO
TITLE "Prelude In Minor C"
PERFORMER "Jack Starr's Burning Starr"
INDEX 01 18:43:12
TRACK 07 AUDIO
TITLE "Evil Never Sleeps"
PERFORMER "Jack Starr's Burning Starr"
INDEX 01 19:56:10
TRACK 08 AUDIO
TITLE "Path Of Destruction"
PERFORMER "Jack Starr's Burning Starr"
INDEX 01 23:23:38
TRACK 09 AUDIO
TITLE "M-1 [instrumental]"
PERFORMER "Jack Starr's Burning Starr"
INDEX 01 27:02:01
TRACK 10 AUDIO
TITLE "Avenging Angel"
PERFORMER "Jack Starr's Burning Starr"
INDEX 01 27:48:07
TRACK 11 AUDIO
TITLE "Run For Your Life"
PERFORMER "Jack Starr's Burning Starr"
INDEX 01 31:52:59
TRACK 12 AUDIO
TITLE "Coda"
PERFORMER "Jack Starr's Burning Starr"
INDEX 01 37:09:08
TRACK 13 AUDIO
TITLE "Burning Starr {*} ('97 Remix)"
PERFORMER "Jack Starr's Burning Starr"
INDEX 01 38:28:20
TRACK 14 AUDIO
TITLE "Metal Generation {*} ('97 Remix)"
PERFORMER "Jack Starr's Burning Starr"
INDEX 01 41:25:34

links
Parts: 1; 2; 3; 4; 5

spectrum
Attachment:
spectrum.jpg
spectrum.jpg [ 365.83 KiB | Viewed 116 times ]

_________________
Имя мне - Антифриз


Top
 Profile  
 
 
PostPosted: 04 Jan 2012 
Труъ
User avatar
Joined: 14 Jul 2009
Posts: 158
Lоcаtion: Hell Is Here
Age: 47
Name: Adriano
Thank you salvation, for filling my request ! :thanx: :true:


Top
 Profile E-mail  
 
 
PostPosted: 29 Jan 2012 
Хиппей (support team)
User avatar
Joined: 30 Jul 2007
Posts: 97011
Lоcаtion: Киев (Kyiv, UA)
Age: 44
Name: Andrey
:thanx:

mirror: Narod

_________________


Top
 Profile E-mail  
 
 
PostPosted: 30 Jan 2012 
Прокъмитолист
User avatar
Joined: 12 Aug 2007
Posts: 6252
Lоcаtion: Санктъ-Петербуркъ
Age: 50
Name: Олекъ
Саша, спасибо за альбом. Андрюха, спасибо за зеркальце :thanx:

_________________
прокъметол - это музыко, от которово есть прок (ы)


Top
 Profile  
 
 
PostPosted: 29 Feb 2012 
5cm
User avatar
Joined: 05 May 2009
Posts: 52
Lоcаtion: Kherson
Age: 46
Name: Oleg
Спасибочки!!! :true:


Top
 Profile E-mail  
 
 
PostPosted: 29 Feb 2012 
ТрэшЭрос
User avatar
Joined: 18 Jul 2011
Posts: 2292
Lоcаtion: Гулькевичи
Age: 42
Name: Александр
:thanx:

_________________
Thrash no trash!!!


Top
 Profile E-mail  
 
Display posts from previous:  Sort by  
Post new topic Reply to topic  [ 6 posts ] 

All times are UTC + 3 hours


Who is online

Users browsing this forum: No registered users and 2 guests


You cannot post new topics in this forum
You cannot reply to topics in this forum
You cannot edit your posts in this forum
You cannot delete your posts in this forum
You cannot post attachments in this forum

Search for:
Яндекс.Метрика
Powered by phpBB © 2000, 2002, 2005, 2007 phpBB Group