\m/ 80's metal \m/

Информационно-аналитический форум "80 см пыли" (In Search We Trust) "У нас никто никуда не спешит"
Me For You - http://me-4u.com
It is currently 16 Dec 2018

All times are UTC + 3 hours

Spoiler
Chat - temporary registration for foreign users (please leave your application here)







Post new topic Reply to topic  [ 5 posts ] 
Author Message
 
PostPosted: 07 Jan 2011 
Работнечег
User avatar
Joined: 28 Aug 2007
Posts: 5606
Lоcаtion: г. Москва
Age: 29
Name: Дима
Image

Band: In Solitude
Album: Nethergod
Label: Recital Records
Genre: Heavy/Power Metal
Country: Portugal
Format: Flac + Log + Cue/Covers
Size: 435 Mb/13 Mb

Line-Up:
Sergio Martins - Vocals (Cycles)
Paulo Camisa - Guitars
Eduardo Neves - Bass (Obscurity (Prt))
Hugo Moreira - Drums
Lisa Amaral - Keyboards


Tracklist:
1. The Passage 01:16
2. Angel of the Odd 04:43
3. The Nethergod 07:04
4. Realm of Thousand Spears 04:33
5. Fiddlers Green 05:34
6. Beyond the Shores of Our Time 06:32
7. The 11th Planet 03:39
8. Journey to the Line 03:51
9. Glimmer of Evil 01:16
10. Stronghold 04:46
11. Of Once and Future Heroes 05:21
12. Season of Revenge 04:58
13. A Tear in Face of Eternity 03:30
Total playing time 57:03

LOG
Exact Audio Copy V0.99 prebeta 5 from 4. May 2009

EAC extraction logfile from 6. January 2011, 18:11

In Solitude / Nethergod

Used drive : PIONEER DVD-RW DVR-116D Adapter: 0 ID: 0

Read mode : Secure
Utilize accurate stream : Yes
Defeat audio cache : Yes
Make use of C2 pointers : No

Read offset correction : 96
Overread into Lead-In and Lead-Out : No
Fill up missing offset samples with silence : Yes
Delete leading and trailing silent blocks : No
Null samples used in CRC calculations : Yes
Used interface : Native Win32 interface for Win NT & 2000

Used output format : User Defined Encoder
Selected bitrate : 32 kBit/s
Quality : High
Add ID3 tag : No
Command line compressor : C:\Program Files\Exact Audio Copy\Flac\flac.exe
Additional command line options : -6 -V %s


TOC of the extracted CD

Track | Start | Length | Start sector | End sector
---------------------------------------------------------
1 | 0:00.00 | 1:12.08 | 0 | 5407
2 | 1:12.08 | 4:45.28 | 5408 | 26810
3 | 5:57.36 | 6:34.08 | 26811 | 56368
4 | 12:31.44 | 4:34.50 | 56369 | 76968
5 | 17:06.19 | 5:49.39 | 76969 | 103182
6 | 22:55.58 | 6:27.61 | 103183 | 132268
7 | 29:23.44 | 3:41.60 | 132269 | 148903
8 | 33:05.29 | 3:51.20 | 148904 | 166248
9 | 36:56.49 | 1:15.14 | 166249 | 171887
10 | 38:11.63 | 4:46.63 | 171888 | 193400
11 | 42:58.51 | 5:21.13 | 193401 | 217488
12 | 48:19.64 | 4:59.42 | 217489 | 239955
13 | 53:19.31 | 3:35.64 | 239956 | 256144


Range status and errors

Selected range

Filename D:\Музыка\Lossless\In Solitude - Nethergod (2004)\In Solitude - Nethergod.wav

Peak level 100.0 %
Range quality 99.9 %
Copy CRC 33E7E47B
Copy OK

No errors occurred


AccurateRip summary

Track 1 not present in database
Track 2 not present in database
Track 3 not present in database
Track 4 not present in database
Track 5 not present in database
Track 6 not present in database
Track 7 not present in database
Track 8 not present in database
Track 9 not present in database
Track 10 not present in database
Track 11 not present in database
Track 12 not present in database
Track 13 not present in database

None of the tracks are present in the AccurateRip database

End of status report

CUE
REM GENRE "Power Metal"
REM DATE 2004
REM DISCID B40D570D
REM COMMENT "ExactAudioCopy v0.99pb5"
PERFORMER "In Solitude"
TITLE "Nethergod"
FILE "In Solitude - Nethergod.flac" WAVE
TRACK 01 AUDIO
TITLE "The Passage"
PERFORMER "In Solitude"
INDEX 01 00:00:00
TRACK 02 AUDIO
TITLE "Angel Of The Odd"
PERFORMER "In Solitude"
INDEX 01 01:12:08
TRACK 03 AUDIO
TITLE "The Nethergod"
PERFORMER "In Solitude"
INDEX 01 05:57:36
TRACK 04 AUDIO
TITLE "Realm Of Thousand Spears"
PERFORMER "In Solitude"
INDEX 01 12:31:44
TRACK 05 AUDIO
TITLE "Fiddlers Green"
PERFORMER "In Solitude"
INDEX 00 17:05:71
INDEX 01 17:06:19
TRACK 06 AUDIO
TITLE "Beyond The Shores Of Our TIme"
PERFORMER "In Solitude"
INDEX 00 22:55:33
INDEX 01 22:55:58
TRACK 07 AUDIO
TITLE "The 11th Planet"
PERFORMER "In Solitude"
INDEX 01 29:23:44
TRACK 08 AUDIO
TITLE "Journey To The Line"
PERFORMER "In Solitude"
INDEX 01 33:05:29
TRACK 09 AUDIO
TITLE "Glimmer Of Evil"
PERFORMER "In Solitude"
INDEX 01 36:56:49
TRACK 10 AUDIO
TITLE "Stronghold"
PERFORMER "In Solitude"
INDEX 01 38:11:63
TRACK 11 AUDIO
TITLE "Of Once And Future Heroes"
PERFORMER "In Solitude"
INDEX 01 42:58:51
TRACK 12 AUDIO
TITLE "Season Of Revenge"
PERFORMER "In Solitude"
INDEX 01 48:19:64
TRACK 13 AUDIO
TITLE "A Tear In Face Of Eternity"
PERFORMER "In Solitude"
INDEX 01 53:19:31

Spectrum
Image


Narod.Ru
Covers


Top
 Profile E-mail  
 
 
PostPosted: 07 Jan 2011 
Хиппей (support team)
User avatar
Joined: 30 Jul 2007
Posts: 108945
Lоcаtion: Киев (Kyiv, UA)
Age: 45
Name: Andrey
:thanx:

lossless http://www.multiupload.com/E8MKTRFE5Q

scans http://www.multiupload.com/LSWKA56R9K

_________________


Top
 Profile E-mail  
 
 
PostPosted: 07 Jan 2011 
Хиппей (support team)
User avatar
Joined: 30 Jul 2007
Posts: 108945
Lоcаtion: Киев (Kyiv, UA)
Age: 45
Name: Andrey
http://rutracker.org/forum/viewtopic.php?t=3357583

:thanx: Очень шустро человек скачал и раздавать начал :crazy: :true:

_________________


Top
 Profile E-mail  
 
 
PostPosted: 08 Jan 2011 
Работнечег
User avatar
Joined: 28 Aug 2007
Posts: 5606
Lоcаtion: г. Москва
Age: 29
Name: Дима
Жду разгромной рецензии от Андрюхи :crazy:


Top
 Profile E-mail  
 
 
PostPosted: 08 Jan 2011 
Хиппей (support team)
User avatar
Joined: 30 Jul 2007
Posts: 108945
Lоcаtion: Киев (Kyiv, UA)
Age: 45
Name: Andrey
Не, ну чего разгромной. Если предыдущий малость уныл и монотонен, то этот явно повеселее должен быть :crazy:

_________________


Top
 Profile E-mail  
 
Display posts from previous:  Sort by  
Post new topic Reply to topic  [ 5 posts ] 

All times are UTC + 3 hours


Who is online

Users browsing this forum: No registered users and 2 guests


You cannot post new topics in this forum
You cannot reply to topics in this forum
You cannot edit your posts in this forum
You cannot delete your posts in this forum
You cannot post attachments in this forum

Search for:
Яндекс.Метрика
Powered by phpBB © 2000, 2002, 2005, 2007 phpBB Group