\m/ 80's metal \m/

Информационно-аналитический форум "80 см пыли" (In Search We Trust) "У нас никто никуда не спешит"
Me For You - http://me-4u.com
It is currently 16 Dec 2018

All times are UTC + 3 hours

Spoiler
Chat - temporary registration for foreign users (please leave your application here)







Post new topic Reply to topic  [ 7 posts ] 
Author Message
 
PostPosted: 12 Dec 2010 
Работнечег
User avatar
Joined: 28 Aug 2007
Posts: 5606
Lоcаtion: г. Москва
Age: 29
Name: Дима
Image

Band: In Solitude
Album: Opus:Universe
Label: Recital Records
Genre: Heavy Metal
Country: Portugal
Format: Flac + Log + Cue + Covers
Size: 429 Mb

Line-Up:
Sergio Martins - Vocals (Cycles)
Paulo Camisa - Guitars
Eduardo Borges - Bass
Augusto Peixoto (Cycles, Dove (Prt), Paradigma (Prt), Headstone (Prt)) - Drums
Lisa Amaral - Keyboards


Tracklist:
1. Awakening 01:40
2. Alpha Event 04:24
3. Stellar Phase 04:58
4. In the Depths 05:31
5. Legacy of a Dying Star 05:14
6. Near the Event Horizon 05:34
7. Beyond 04:38
8. Empire of Eternities 04:13
9. Gravity's Triumph 03:35
10. Requiem for the Stars 03:44
11. Entropy 04:31
12. The Decay 04:19
13. Omega Event 05:42

LOG
Exact Audio Copy V0.99 prebeta 5 from 4. May 2009

EAC extraction logfile from 11. December 2010, 14:46

In Solitude / Opus: Universe

Used drive : PIONEER DVD-RW DVR-116D Adapter: 0 ID: 0

Read mode : Secure
Utilize accurate stream : Yes
Defeat audio cache : Yes
Make use of C2 pointers : No

Read offset correction : 96
Overread into Lead-In and Lead-Out : No
Fill up missing offset samples with silence : Yes
Delete leading and trailing silent blocks : No
Null samples used in CRC calculations : Yes
Used interface : Native Win32 interface for Win NT & 2000

Used output format : User Defined Encoder
Selected bitrate : 32 kBit/s
Quality : High
Add ID3 tag : No
Command line compressor : C:\Program Files\Exact Audio Copy\Flac\flac.exe
Additional command line options : -6 -V %s


TOC of the extracted CD

Track | Start | Length | Start sector | End sector
---------------------------------------------------------
1 | 0:00.00 | 1:39.70 | 0 | 7494
2 | 1:39.70 | 4:23.66 | 7495 | 27285
3 | 6:03.61 | 4:58.19 | 27286 | 49654
4 | 11:02.05 | 5:30.71 | 49655 | 74475
5 | 16:33.01 | 5:13.50 | 74476 | 98000
6 | 21:46.51 | 5:34.26 | 98001 | 123076
7 | 27:21.02 | 4:37.66 | 123077 | 143917
8 | 31:58.68 | 4:13.31 | 143918 | 162923
9 | 36:12.24 | 3:35.25 | 162924 | 179073
10 | 39:47.49 | 3:43.48 | 179074 | 195846
11 | 43:31.22 | 4:31.10 | 195847 | 216181
12 | 48:02.32 | 4:18.58 | 216182 | 235589
13 | 52:21.15 | 5:41.54 | 235590 | 261218


Range status and errors

Selected range

Filename D:\Музыка\Lossless\In Solitude - Opus Universe (2001)\In Solitude - Opus Universe.wav

Peak level 100.0 %
Range quality 100.0 %
Copy CRC 5D9FB276
Copy OK

No errors occurred


AccurateRip summary

Track 1 not present in database
Track 2 not present in database
Track 3 not present in database
Track 4 not present in database
Track 5 not present in database
Track 6 not present in database
Track 7 not present in database
Track 8 not present in database
Track 9 not present in database
Track 10 not present in database
Track 11 not present in database
Track 12 not present in database
Track 13 not present in database

None of the tracks are present in the AccurateRip database

End of status report

CUE
REM GENRE "Heavy Metal"
REM DATE 2001
REM DISCID B00D9A0D
REM COMMENT "ExactAudioCopy v0.99pb5"
PERFORMER "In Solitude"
TITLE "Opus: Universe"
FILE "In Solitude - Opus Universe.flac" WAVE
TRACK 01 AUDIO
TITLE "Awakening"
PERFORMER "In Solitude"
INDEX 01 00:00:00
TRACK 02 AUDIO
TITLE "Alpha Event"
PERFORMER "In Solitude"
INDEX 01 01:39:70
TRACK 03 AUDIO
TITLE "Stellar Phase"
PERFORMER "In Solitude"
INDEX 01 06:03:61
TRACK 04 AUDIO
TITLE "In The Depths"
PERFORMER "In Solitude"
INDEX 01 11:02:05
TRACK 05 AUDIO
TITLE "Legacy Of A Dying Star"
PERFORMER "In Solitude"
INDEX 00 16:32:12
INDEX 01 16:33:01
TRACK 06 AUDIO
TITLE "Near The Event Horizon"
PERFORMER "In Solitude"
INDEX 01 21:46:51
TRACK 07 AUDIO
TITLE "Beyond"
PERFORMER "In Solitude"
INDEX 01 27:21:02
TRACK 08 AUDIO
TITLE "Empire Of Eternities"
PERFORMER "In Solitude"
INDEX 01 31:58:68
TRACK 09 AUDIO
TITLE "Gravity's Triumph"
PERFORMER "In Solitude"
INDEX 01 36:12:24
TRACK 10 AUDIO
TITLE "Requiem For The Stars"
PERFORMER "In Solitude"
INDEX 01 39:47:49
TRACK 11 AUDIO
TITLE "Entropy"
PERFORMER "In Solitude"
INDEX 01 43:31:22
TRACK 12 AUDIO
TITLE "The Decay"
PERFORMER "In Solitude"
INDEX 01 48:02:32
TRACK 13 AUDIO
TITLE "Omega Event"
PERFORMER "In Solitude"
INDEX 01 52:21:15

Spectrum
Image

Немного биографии (с майспейса группы)
1995 год - группа была сформирована в следующем составе: Sérgio Martins - вокал, Lisa Amaral - клавиши, Augusto Peixoto - барабаны, Eduardo Borges - басс и Tiago Sousa - гитары.Первый раз они собрались в маленькой репетиционной комнатке.Первые композиции можно было отнести к миксу из дума, дэта и классического хэви-металла.
1996 год - In Solitude выпустили промо-трэк Children Of The Dark. Это песня осталась одной из любимых песен группы на концертах.Также в этому году In Solitude отыграли несколько концертов, создавая себе репутацию на андерграундной сцене в Порту.
1997 год - Выпуск демо-записи "Reflections", а также хороший промоушн на концертах, принесли группе договор с Independent Records на запись дебютного альбома.
1998 год - Дебютный альбом был записан в Rec’n’roll студии и спродюсирован Luis Barros (Tarantula). Названный "Eternal" ("Вечный"), альбом был очень хорошо принят критиками и публикой. В этом же году In Solitude были провозглашены "Лучшей молодой группой Португалии" и их тур в поддержку альбома занял почти год, в течение которого группа отыграла чуть ли не в каждом уголке Португалии.
1999 год - Tiago Sousa покинул группу и был заменён Paulo Camisa. In Solitude продолжили тур в поддержку альбома, отыграв несколько концертов со Stratovarius и Tarantula.
2000 год - Группа снова вернулась в Rec’n’roll студию с продюссером Luis Barros для записи концептуального альбома "Opus:Universe". Альбом был выпущен в октябре - первый альбом на Recital Records - и во время тура в его поддержку In Solitude выступали с Metalium, Oratory, Sacred Sin в Португалии и Испании.
2001 и 2002 годы - Этот период был отмечен изменениями в составе и написанием новых песен.В течение 2001 года Augusto Peixoto и Eduardo Borges оставили группу, вместо них пришли Hugo Moreira и Rogério Campos. С полностью обновлённой ритм-секцией, In Solitude написали новый материал для третьего альбома, кавер для трибьюта Tarantula на песню группы "Falling World", а также отыграли пару концертов с группой Blaze.
2003 год - Год ознаменовался очереднм изменением в составе, Rogério Campos был заменён Eduardo Neves.Группа вошла в Echosystem студию для записи своего шедевра “Nethergod”, очень сильного альбома, который также стал самым тяжёлым в карьере группы.
2004 и 2005 годы - Итак, альбом "Nethergod" был выпущен.Сведённый Rui Santos (Oratory) и смикшированный Mário Pereira / Rui Santos, альбом был благосклонно принят в португальской и международной прессе.Тур в поддержку альбом последовал незамедлительно после релиза диска, In Solitude отыграли более 20 концертов, деля сцену с такими группами как Epica, Skyclad, Oratory и Ramp.
2006 год - Группа вновь поменяла ритм-секцию, вместо Eduardo Neves в состав вернулся бывший участник Rogério Campos. Барабанщик,Hugo Moreira также покинул группу и замена ему не была найдена.Несморя на это, In Solitude засели за написание нового альбома.


От себя могу добавить, что это самый слабый альбом от этой группы, но тем не менее он неплох и вполне заслуживает внимания. По музыке это хэви с симфо-составляющей, где-то она выпячена на первый план, где-то её почти не слышно.Релиз довольно среднетемповый, быстрых композиций тут нет.Из трэков сложно что-то выделить, альбом очень ровный, хитов тут особо нет, но и провальных песен тоже.Есть следующий альбом группы, могу выложить.Он потяжелее и похитовее.

Myspace

iFolder l MultiUp l Narod


Last edited by church on 18 Dec 2010, edited 1 time in total.

Top
 Profile E-mail  
 
 
PostPosted: 12 Dec 2010 
Прокъмитолист
User avatar
Joined: 12 Aug 2007
Posts: 6514
Lоcаtion: Санктъ-Петербуркъ
Age: 51
Name: Олекъ
спасибо, Дим! :thanx: утащу в копилочку :losik:

_________________
прокъметол - это музыко, от которово есть прок (ы)


Top
 Profile  
 
 
PostPosted: 14 Dec 2010 
Хиппей (support team)
User avatar
Joined: 30 Jul 2007
Posts: 108945
Lоcаtion: Киев (Kyiv, UA)
Age: 45
Name: Andrey
:thanx:

_________________


Top
 Profile E-mail  
 
 
PostPosted: 29 Dec 2010 
Хиппей (support team)
User avatar
Joined: 30 Jul 2007
Posts: 108945
Lоcаtion: Киев (Kyiv, UA)
Age: 45
Name: Andrey
50% - Heavy Metal + 30% - Power Metal + 10% - Sympho/Prog Metal +... 3% - Doom & 7% - Hard Rock = :shit:

В общем, нудятиной для меня оказался альбомчик... :oops:
Сыграно и записано всё великолепно, а вот изюма нету, нету чего-то своего, оригинального.
Как будто и не слушал два раза - ничего в памяти не осталось, кроме куска женского вокала в 6-й композиции (как яйцами по серпу, кстати).

Группа минимум 4 года уже молчит, вокалист по-прежнему подрабатывает в своем проекте "Круги" (или "Лисапеды" :shok: ?), остальные вроде тож успешно разбежались... :cow:

4/10

_________________


Top
 Profile E-mail  
 
 
PostPosted: 03 Jan 2011 
Работнечег
User avatar
Joined: 28 Aug 2007
Posts: 5606
Lоcаtion: г. Москва
Age: 29
Name: Дима
я и говорю самый слабый альбом группы,на порядок слабее остальных двух... :pardon:


Top
 Profile E-mail  
 
 
PostPosted: 04 Jan 2011 
Хиппей (support team)
User avatar
Joined: 30 Jul 2007
Posts: 108945
Lоcаtion: Киев (Kyiv, UA)
Age: 45
Name: Andrey
Дык, норм, Дим, я ж тебя читал выше :thanx:
Остальные чуть позже отслушаю. Люблю когда в самом начале фиговый альбом группы попадается. Это намного лучше, чем сразу прослушать лучший и затем с каждым новым всё больше и больше обламываться :fingal:

_________________


Top
 Profile E-mail  
 
 
PostPosted: 21 Feb 2011 
Хиппей (support team)
User avatar
Joined: 30 Jul 2007
Posts: 108945
Lоcаtion: Киев (Kyiv, UA)
Age: 45
Name: Andrey
Зачем-то еще раз отслушал этот альбом (случайно в винамп пролез :fingal: ). Ну так се.. Уже получше. Это с учётом солнечного настроения :dance:
Как фон при работе вполне даже сносно слушается.

_________________


Top
 Profile E-mail  
 
Display posts from previous:  Sort by  
Post new topic Reply to topic  [ 7 posts ] 

All times are UTC + 3 hours


Who is online

Users browsing this forum: No registered users and 1 guest


You cannot post new topics in this forum
You cannot reply to topics in this forum
You cannot edit your posts in this forum
You cannot delete your posts in this forum
You cannot post attachments in this forum

Search for:
Яндекс.Метрика
Powered by phpBB © 2000, 2002, 2005, 2007 phpBB Group