\m/ 80's metal \m/

Информационно-аналитический форум "80 см пыли" (In Search We Trust) "У нас никто никуда не спешит"
Me For You - http://me-4u.com
It is currently 14 Dec 2018

All times are UTC + 3 hours

Spoiler
Chat - temporary registration for foreign users (please leave your application here)







Post new topic Reply to topic  [ 1 post ] 
Author Message
 
PostPosted: 12 Sep 2010 
metallpaparazzy
User avatar
Joined: 20 Dec 2009
Posts: 674
Lоcаtion: Днепропетровск
Age: 43
Name: Геннадий
Icon (USA) - Icon

Image

Full-length, Capitol Records
April 13th, 1984

Line-up :

Dan Wexler - guitar
Stephen Clifford - vocals
John Aquilino - guitar
Tracy Wallach - bass
Pat Dixon - drums

1. (Rock On) Through The Night 03:31
2. Killer Machine 03:31
3. On Your Feet 03:22
4. World War 04:30
5. Hot Desert Night 03:49
6. Under My Gun 03:30
7. Iconoclast 01:26
8. Rock'n'Roll Maniac 03:58
9. I'm Alive 04:08
10. It's Up To You 05:04

Total playing time 36:49
log
Отчёт EAC об извлечении, выполненном 10. сентября 2010, 15:43 для диска:
Icon (USA) / Icon (2000 edit)

Дисковод: Optiarc DVD RW AD-7170S Adapter: 1 ID: 1
Режим чтения: Достоверный (C2: нет, Точный поток: да, Отключение кэша: да)
Коррекция смещения при чтении: 48
Способность читать области Lead-in и Lead-out : Нет

Выходной формат: Внутренние WAV-операции
44.100 Гц; 16 бит; стерео

Другие параметры:
Заполнение пропущенных сэмплов тишиной : Да
Удаление блоков с тишиной в начале и конце : Нет
Установленный внешний ASPI-интерфейс


Характеристики диапазона извлечения и сообщения об ошибках
Выбранный диапазон
Имя файла D:\METAL\ЛОСИ\МОИ\ICON\Icon (USA) - Icon (2000 edit).wav

Пиковый уровень 100.0 %
Качество диапазона 100.0 %
CRC 2BF0DE59
Копирование... OK

Ошибок не произошло

Конец отчёта

cue
REM GENRE "Heavy Metal"
REM DATE 1984
REM DISCID 6508B10A
REM COMMENT "ExactAudioCopy v0.95b4"
PERFORMER "Icon (USA)"
TITLE "Icon (2000 edit)"
FILE "Icon (USA) - Icon (2000 edit).wav" WAVE
TRACK 01 AUDIO
TITLE "(Rock On) Through The Night"
PERFORMER "Icon (USA)"
INDEX 00 00:00:00
INDEX 01 00:00:32
TRACK 02 AUDIO
TITLE "Killer Machine"
PERFORMER "Icon (USA)"
INDEX 00 03:33:62
INDEX 01 03:34:12
TRACK 03 AUDIO
TITLE "On Your Feet "
PERFORMER "Icon (USA)"
INDEX 00 07:05:65
INDEX 01 07:06:17
TRACK 04 AUDIO
TITLE "World War "
PERFORMER "Icon (USA)"
INDEX 00 10:28:67
INDEX 01 10:29:25
TRACK 05 AUDIO
TITLE "Hot Desert Night"
PERFORMER "Icon (USA)"
INDEX 00 15:00:10
INDEX 01 15:00:35
TRACK 06 AUDIO
TITLE " Under My Gun"
PERFORMER "Icon (USA)"
INDEX 00 18:50:37
INDEX 01 18:50:60
TRACK 07 AUDIO
TITLE " Iconoclast "
PERFORMER "Icon (USA)"
INDEX 00 22:21:47
INDEX 01 22:22:02
TRACK 08 AUDIO
TITLE "Rock'n'Roll Maniac"
PERFORMER "Icon (USA)"
INDEX 00 23:49:25
INDEX 01 23:49:52
TRACK 09 AUDIO
TITLE "I'm Alive "
PERFORMER "Icon (USA)"
INDEX 00 27:49:05
INDEX 01 27:49:35
TRACK 10 AUDIO
TITLE "It's Up To You "
PERFORMER "Icon (USA)"
INDEX 00 31:58:17
INDEX 01 31:58:52

Рип мой, с левандоса, ("топорно-убийственный" ремастер) картинки прилагаются.
http://www.multiupload.com/1SOAI5ALG3 (flac)
http://www.multiupload.com/VXTIJ0EO7S (320)


Top
 Profile E-mail  
 
Display posts from previous:  Sort by  
Post new topic Reply to topic  [ 1 post ] 

All times are UTC + 3 hours


Who is online

Users browsing this forum: No registered users and 3 guests


You cannot post new topics in this forum
You cannot reply to topics in this forum
You cannot edit your posts in this forum
You cannot delete your posts in this forum
You cannot post attachments in this forum

Search for:
Яндекс.Метрика
cron
Powered by phpBB © 2000, 2002, 2005, 2007 phpBB Group