\m/ 80's metal \m/

Информационно-аналитический форум "80 см пыли" (In Search We Trust) "У нас никто никуда не спешит"
Me For You - http://me-4u.com
It is currently 19 Dec 2018

All times are UTC + 3 hours

Spoiler
Chat - temporary registration for foreign users (please leave your application here)







Post new topic Reply to topic  [ 13 posts ] 
Author Message
 
PostPosted: 28 Jul 2010 
5cm
User avatar
Joined: 24 Feb 2009
Posts: 68
Age: 43
Name: .
Ignorance - 1992 - Positively Shocking [ape]

Image

Genre: Funk Metal/Rock
Location: USA
Format: ape+cue+log
Size: 259 Mb


    1. Shocking - 02:55
    2. Two Sick Blokes - 03:44
    3. Blinded - 05:06
    4. Lesson #12 - 03:35
    5. World Upside Down - 06:58
    6. Popscotch Mex Man - 03:09
    7. True - 04:04
    8. Healing Hands - 04:10
    9. The Colour Blue - 04:09
    10. Slouch - 04:13

    TPT: 42:06

iFolder l MultiUp l Narod

log
Отчет EAC об извлечении из 27. Июль 2010, 22:21 для CD
Ignorance / Positively Shocking

Дисковод: PIONEER DVD-RW DVR-216 Adapter: 1 ID: 1
Режим чтения: Точный: C2 - нет, точный поток - да, отключение кэша - да
Коррекция смещения при чтении: 96
Экстрачтение Lead-in и Lead-out : Нет

Выходной формат: C:\Program Files\Monkey's Audio\MAC.exe (Кодер Monkey's Audio (без потерь))
High Lossless Compression

Другие параметры:
Заполнять пропущенные сэмплы тишиной : Да
Удалить блоки с тишиной в начале и конце : Нет
Установленный внешний ASPI-интерфейс


Статус диапазона и ошибки
Выбранный диапазон
Имя файла K:\New\Ignorance - 1992 - Positively Shocking.wav

Пиковый уровень 66.7 %
Качество диапазона 100.0 %
CRC C7278CA9
Копирование... OK

Ошибок не произошло

Конец отчета


cue
PERFORMER "Ignorance"
TITLE "Positively Shocking"
FILE "Ignorance - 1992 - Positively Shocking.ape" WAVE
TRACK 01 AUDIO
TITLE "Shocking"
PERFORMER "Ignorance"
INDEX 01 00:00:00
TRACK 02 AUDIO
TITLE "Two Sick Blokes"
PERFORMER "Ignorance"
INDEX 00 02:54:17
INDEX 01 02:54:72
TRACK 03 AUDIO
TITLE "Blinded"
PERFORMER "Ignorance"
INDEX 00 06:37:63
INDEX 01 06:39:17
TRACK 04 AUDIO
TITLE "Lesson #12"
PERFORMER "Ignorance"
INDEX 00 11:44:35
INDEX 01 11:45:10
TRACK 05 AUDIO
TITLE "World Upside Down"
PERFORMER "Ignorance"
INDEX 00 15:19:32
INDEX 01 15:20:32
TRACK 06 AUDIO
TITLE "Popscotch Mex Man"
PERFORMER "Ignorance"
INDEX 00 22:08:25
INDEX 01 22:11:22
TRACK 07 AUDIO
TITLE "True"
PERFORMER "Ignorance"
INDEX 00 25:18:16
INDEX 01 25:18:40
TRACK 08 AUDIO
TITLE "Healing Hands"
PERFORMER "Ignorance"
INDEX 00 29:21:40
INDEX 01 29:22:12
TRACK 09 AUDIO
TITLE "The Colour Blue"
PERFORMER "Ignorance"
INDEX 00 33:30:66
INDEX 01 33:32:35
TRACK 10 AUDIO
TITLE "Slouch"
PERFORMER "Ignorance"
INDEX 00 37:41:61
INDEX 01 37:42:20


Top
 Profile  
 
 
PostPosted: 28 Jul 2010 
Хиппей (support team)
User avatar
Joined: 30 Jul 2007
Posts: 109011
Lоcаtion: Киев (Kyiv, UA)
Age: 45
Name: Andrey
Опа. Спасибо! :thanx:
Переношу в Бухту.

_________________


Top
 Profile E-mail  
 
 
PostPosted: 28 Jul 2010 
Прокъмитолист
User avatar
Joined: 12 Aug 2007
Posts: 6515
Lоcаtion: Санктъ-Петербуркъ
Age: 51
Name: Олекъ
:thanx: :true:

_________________
прокъметол - это музыко, от которово есть прок (ы)


Top
 Profile  
 
 
PostPosted: 29 Jul 2010 
Генеральный thrasher
User avatar
Joined: 03 Oct 2008
Posts: 3539
Lоcаtion: Ханты-Мансийский АО
Age: 43
Name: Сергей
:losik: :true:


Top
 Profile  
 
 
PostPosted: 29 Jul 2010 
А может смените мне статус?..
User avatar
Joined: 17 Jan 2008
Posts: 872
Lоcаtion: Пенза
Age: 41
Name: Денис
Ооо...Спасибище!!!! :dance: :true: :true: :true:


Top
 Profile  
 
 
PostPosted: 29 Jul 2010 
Хиппей (support team)
User avatar
Joined: 30 Jul 2007
Posts: 109011
Lоcаtion: Киев (Kyiv, UA)
Age: 45
Name: Andrey
Ну, в общем, я, канешна, склерозю, но иногда память все ж прорывается.
Так вот, альбом-лось у меня этот все же был скачан давно (скорее всего с ваффлей), но затерялся на винтах. И я его здесь уже нещадно чмырил в теме о фанк-метоле. Поэтому пройдусь еще раз.
Для поклонников трэша - забудьте, его здесь вообще нет.
Да что трэш, здесь и хэви-то лишь изредка пробивается.
Диск выдержан в стиле балладных песен Faith No More, только в несколько раз скучнее и хуже. Иногда поёт девушка. Почти трипхоп. Умничка, но лучше бы она танцевала.
Для медитации не пойдет - мозг упарицца. А вот для прослушивания такой музыки при укурке, да валяясь после литра вотки в гамаке да в лесу - в самый раз :meloman:

3/10

_________________


Top
 Profile E-mail  
 
 
PostPosted: 29 Jul 2010 
Прокъмитолист
User avatar
Joined: 12 Aug 2007
Posts: 6515
Lоcаtion: Санктъ-Петербуркъ
Age: 51
Name: Олекъ
тока ради такой рецухи надо скачать :true: :true:

_________________
прокъметол - это музыко, от которово есть прок (ы)


Top
 Profile  
 
 
PostPosted: 29 Jul 2010 
Хиппей (support team)
User avatar
Joined: 30 Jul 2007
Posts: 109011
Lоcаtion: Киев (Kyiv, UA)
Age: 45
Name: Andrey
cUsima, а сканы можешь выложить? :oops:

_________________


Top
 Profile E-mail  
 
 
PostPosted: 29 Jul 2010 
5cm
User avatar
Joined: 24 Feb 2009
Posts: 68
Age: 43
Name: .
Scatterbrain wrote:
cUsima, а сканы можешь выложить? :oops:

Могу сфотографировать :shok:
Пойдет???


Top
 Profile  
 
 
PostPosted: 29 Jul 2010 
Хиппей (support team)
User avatar
Joined: 30 Jul 2007
Posts: 109011
Lоcаtion: Киев (Kyiv, UA)
Age: 45
Name: Andrey
Канешна :true:

_________________


Top
 Profile E-mail  
 
 
PostPosted: 02 Aug 2010 
5cm
User avatar
Joined: 24 Feb 2009
Posts: 68
Age: 43
Name: .
Scatterbrain wrote:
Канешна :true:

Как-то так
http://ifolder.ru/18746754


Top
 Profile  
 
 
PostPosted: 02 Aug 2010 
Хиппей (support team)
User avatar
Joined: 30 Jul 2007
Posts: 109011
Lоcаtion: Киев (Kyiv, UA)
Age: 45
Name: Andrey
О! Спасибо, забираю :true:
Щас перезалью архив вместе с картинками :dance:

_________________


Top
 Profile E-mail  
 
 
PostPosted: 19 Oct 2010 
Анатолий
User avatar
Joined: 18 Oct 2008
Posts: 3258
Lоcаtion: Армавир
Age: 41
Name: Анатолий
cUsima

Спасибо большое за альбом! :thanx:


Top
 Profile E-mail  
 
Display posts from previous:  Sort by  
Post new topic Reply to topic  [ 13 posts ] 

All times are UTC + 3 hours


Who is online

Users browsing this forum: Yandex [Bot] and 1 guest


You cannot post new topics in this forum
You cannot reply to topics in this forum
You cannot edit your posts in this forum
You cannot delete your posts in this forum
You cannot post attachments in this forum

Search for:
Яндекс.Метрика
Powered by phpBB © 2000, 2002, 2005, 2007 phpBB Group