\m/ 80's metal \m/

Информационно-аналитический форум "80 см пыли" (In Search We Trust) "У нас никто никуда не спешит"
Me For You - http://me-4u.com
It is currently 17 Dec 2018

All times are UTC + 3 hours

Spoiler
Chat - temporary registration for foreign users (please leave your application here)







Post new topic Reply to topic  [ 10 posts ] 
Author Message
 
PostPosted: 15 Jun 2010 
ыыыы
User avatar
Joined: 17 May 2009
Posts: 952
Lоcаtion: Пушкино, МО
Age: 40
Name: Дмитрий
Image


Жанр: Heavy Metal
Происхождение исполнителя: Англия
Год издания: 1984
Год издания данного носителя: 1985
Страна-производитель носителя: Япония
Аудио кодек: FLAC
Тип рипа: image+.cue
Битрейт аудио: lossless
Продолжительность: 50:58
Рип: Собственный
Лейбл: EMI/TOSHIBA
Каталоговый номер: CP32-5043
Матрица: CP32-5043 1B6 (TOSHIBA)

Треклист:
1. Aces High 04:32
2. 2 Minutes to Midnight 06:04
3. Losfer Words (Big 'Orra) 04:15
4. Flash of the Blade 04:06
5. The Duellists 06:07
6. Back in the Village 05:03
7. Powerslave 07:11
8. Rime of the Ancient Mariner 13:39

"Куй"
REM GENRE "Heavy Metal"
REM DATE 1984
REM DISCID 680BF208
REM COMMENT "ExactAudioCopy v0.99pb5"
PERFORMER "Iron Maiden"
TITLE "Powerslave [CP32-5043]"
FILE "Iron Maiden - Powerslave [CP32-5043].flac" WAVE
TRACK 01 AUDIO
TITLE "Aces High"
PERFORMER "Iron Maiden"
INDEX 01 00:00:00
TRACK 02 AUDIO
TITLE "2 Minutes To Midnight"
PERFORMER "Iron Maiden"
INDEX 01 04:32:30
TRACK 03 AUDIO
TITLE "Losfer Words (Big 'Orra)"
PERFORMER "Iron Maiden"
INDEX 01 10:36:10
TRACK 04 AUDIO
TITLE "Flash Of The Blade"
PERFORMER "Iron Maiden"
INDEX 01 14:51:30
TRACK 05 AUDIO
TITLE "The Duellists"
PERFORMER "Iron Maiden"
INDEX 01 18:57:10
TRACK 06 AUDIO
TITLE "Back In The Village"
PERFORMER "Iron Maiden"
INDEX 01 25:04:22
TRACK 07 AUDIO
TITLE "Powerslave"
PERFORMER "Iron Maiden"
INDEX 01 30:07:30
TRACK 08 AUDIO
TITLE "Rime Of The Ancient Mariner"
PERFORMER "Iron Maiden"
INDEX 01 37:18:45


"Лог"
Exact Audio Copy V0.99 prebeta 5 from 4. May 2009

Отчёт EAC об извлечении, выполненном 15. июня 2010, 23:02

Iron Maiden / Powerslave [CP32-5043]

Дисковод: ASUS DRW-2014S1 Adapter: 1 ID: 0

Режим чтения : Достоверность
Использование точного потока : Да
Отключение кэша аудио : Да
Использование указателей C2 : Нет

Коррекция смещения при чтении : 6
Способность читать области Lead-in и Lead-out : Нет
Заполнение пропущенных сэмплов тишиной : Да
Удаление блоков с тишиной в начале и конце : Нет
При вычислениях CRC использовались нулевые сэмплы : Да
Интерфейс : Установленный внешний ASPI-интерфейс

Выходной формат : Пользовательский кодировщик
Выбранный битрейт : 128 kBit/s
Качество : Высокий
Добавление ID3-тэга : Нет
Утилита сжатия : C:\Program Files\Exact Audio Copy\Flac\flac.exe
Дополнительные параметры : -6 -V -T "artist=%a" -T "title=%t" -T "album=%g" -T "date=%y" -T "tracknumber=%n" -T "genre=%m" -T "comment=EAC 0.99beta5 / FLAC 1.1.0 q6" %s


TOC извлечённого CD

Трек | Старт | Длительность | Начальный сектор | Конечный сектор
---------------------------------------------------------------------
1 | 0:00.00 | 4:32.30 | 0 | 20429
2 | 4:32.30 | 6:03.55 | 20430 | 47709
3 | 10:36.10 | 4:15.20 | 47710 | 66854
4 | 14:51.30 | 4:05.55 | 66855 | 85284
5 | 18:57.10 | 6:07.12 | 85285 | 112821
6 | 25:04.22 | 5:03.08 | 112822 | 135554
7 | 30:07.30 | 7:11.15 | 135555 | 167894
8 | 37:18.45 | 13:39.35 | 167895 | 229354


Характеристики диапазона извлечения и сообщения об ошибках

Выбранный диапазон

Имя файла Y:\Музыка\Iron Maiden\1984 Powerslave\Iron Maiden - Powerslave [CP32-5043].wav

Пиковый уровень 100.0 %
Качество диапазона 100.0 %
CRC теста FFD6CEC3
CRC копии FFD6CEC3
Копирование... OK

Ошибок не произошло

Конец отчёта


Состав:
Bruce Dickinson: Vocals
Steve Harris: Bass
Dave Murray: Lead & Rhythm Guitar
Adrian Smith: Lead & Rhythm Guitar
Nicko McBrain: Drums

CP32-5043

_________________
Витасу до Даймонда как Алсу до Руссоса | При переразмещении - спрашивать разрешение!!


Top
 Profile  
 
 
PostPosted: 16 Jun 2010 
Позитивный Южанин
User avatar
Joined: 07 May 2010
Posts: 1620
Lоcаtion: КРЫМ
Age: 43
Name: Алексей
:true: Железная классика :true:

_________________
WATER'EM ALL!


Top
 Profile E-mail  
 
 
PostPosted: 16 Jun 2010 
Motörheadache
User avatar
Joined: 04 Feb 2010
Posts: 1294
Lоcаtion: Впереди- горы,позади-степи
Age: 45
Name: Александр
Жирняк.... :true: :true: :true:

_________________
Eine Nation, Ein Land, Eine Schnaps!

Наш священный долг:защищать Родину,и соблюдать правила личной гигиены....!


Top
 Profile E-mail  
 
 
PostPosted: 16 Jun 2010 
дядя Миша
User avatar
Joined: 17 Oct 2008
Posts: 3079
Lоcаtion: USSR
Age: 56
Name: Khy
2 Minutes to Midnight!!!!!!!!!!!!!!!!!!!! :true:


Top
 Profile  
 
 
PostPosted: 16 Jun 2010 
Прокъмитолист
User avatar
Joined: 12 Aug 2007
Posts: 6514
Lоcаtion: Санктъ-Петербуркъ
Age: 51
Name: Олекъ
Aces High!!!!111 :true: :true: :true:

_________________
прокъметол - это музыко, от которово есть прок (ы)


Top
 Profile  
 
 
PostPosted: 17 Jun 2010 
Motörheadache
User avatar
Joined: 04 Feb 2010
Posts: 1294
Lоcаtion: Впереди- горы,позади-степи
Age: 45
Name: Александр
spiralarch wrote:
Aces High!!!!111 :true: :true: :true:

Run, live to fly, fly to live, do or die
Run, live to fly, fly to live. Aces high!!!
:true: :band: :true:

_________________
Eine Nation, Ein Land, Eine Schnaps!

Наш священный долг:защищать Родину,и соблюдать правила личной гигиены....!


Top
 Profile E-mail  
 
 
PostPosted: 17 Jun 2010 
Анатолий
User avatar
Joined: 18 Oct 2008
Posts: 3253
Lоcаtion: Армавир
Age: 41
Name: Анатолий
alexx1973 wrote:
Run, live to fly, fly to live, do or dieRun, live to fly, fly to live. Aces high!!!



Постой, постой, сейчас только включу и вместе подпоём!

Rolling, turning, diving
Rolling, turning, diving going in again
Rolling, turning, diving
Rolling, turning, diving

Твою мааааа.... ть... Я лечу! :meloman: :true:

Эх... 80-тые...


Top
 Profile E-mail  
 
 
PostPosted: 17 Jun 2010 
ыыыы
User avatar
Joined: 17 May 2009
Posts: 952
Lоcаtion: Пушкино, МО
Age: 40
Name: Дмитрий
:garmo: :band: :punko: :boo: :blak: :kaz:

_________________
Витасу до Даймонда как Алсу до Руссоса | При переразмещении - спрашивать разрешение!!


Top
 Profile  
 
 
PostPosted: 17 Jun 2010 
Персональный статус
Joined: 14 May 2010
Posts: 236
Age: 37
Name: Денис
ага, сам 3 раза прослушал за последние сутки.


Top
 Profile  
 
 
PostPosted: 19 Jun 2010 
metallpaparazzy
User avatar
Joined: 20 Dec 2009
Posts: 674
Lоcаtion: Днепропетровск
Age: 43
Name: Геннадий
Любимый IRON MAIDEN... :true:
Back in the village :meloman: -- назад в 80-е!


Top
 Profile E-mail  
 
Display posts from previous:  Sort by  
Post new topic Reply to topic  [ 10 posts ] 

All times are UTC + 3 hours


Who is online

Users browsing this forum: No registered users and 1 guest


You cannot post new topics in this forum
You cannot reply to topics in this forum
You cannot edit your posts in this forum
You cannot delete your posts in this forum
You cannot post attachments in this forum

Search for:
Яндекс.Метрика
Powered by phpBB © 2000, 2002, 2005, 2007 phpBB Group