\m/ 80's metal \m/

Информационно-аналитический форум "80 см пыли" (In Search We Trust) "У нас никто никуда не спешит"
Me For You - http://me-4u.com
It is currently 17 Dec 2018

All times are UTC + 3 hours

Spoiler
Chat - temporary registration for foreign users (please leave your application here)







Post new topic Reply to topic  [ 5 posts ] 
Author Message
 
PostPosted: 29 Apr 2010 
ыыыы
User avatar
Joined: 17 May 2009
Posts: 952
Lоcаtion: Пушкино, МО
Age: 40
Name: Дмитрий
Image


Жанр: Heavy Metal
Происхождение исполнителя: Англия
Год издания: 1983
Год издания данного носителя: 1986
Страна-производитель носителя: Япония
Аудио кодек: FLAC
Тип рипа: image+.cue
Битрейт аудио: lossless
Продолжительность: 46:02
Рип: Собственный
Лейбл: EMI/TOSHIBA
Каталоговый номер: CP32-5109
Матрица: CP32-5109 2A2 (TOSHIBA)

Треклист:
1. Where Eagles Dare 06:12
2. Revelations 06:49
3. Flight of Icarus 03:50
4. Die With Your Boots On 05:26
5. The Trooper 04:12
6. Phatoor 0:14
7. Still Life 04:42
8. Quest for Fire 03:42
9. Sun and Steel 03:27
10. To Tame a Land 07:26

"Куй"
REM GENRE "Heavy Metal"
REM DATE 1983
REM DISCID 7F0AC90A
REM COMMENT "ExactAudioCopy v0.99pb5"
PERFORMER "Iron Maiden"
TITLE "Piece Of Mind [CP32-5109]"
FILE "Iron Maiden - Piece Of Mind [CP32-5109].flac" WAVE
TRACK 01 AUDIO
TITLE "Where Eagles Dare"
PERFORMER "Iron Maiden"
INDEX 01 00:00:00
TRACK 02 AUDIO
TITLE "Revelations"
PERFORMER "Iron Maiden"
INDEX 00 06:10:60
INDEX 01 06:12:00
TRACK 03 AUDIO
TITLE "Flight Of Icarus"
PERFORMER "Iron Maiden"
INDEX 01 13:01:35
TRACK 04 AUDIO
TITLE "Die With Your Boots On"
PERFORMER "Iron Maiden"
INDEX 01 16:51:55
TRACK 05 AUDIO
TITLE "The Trooper"
PERFORMER "Iron Maiden"
INDEX 01 22:17:72
TRACK 06 AUDIO
TITLE "Phatoor"
PERFORMER "Iron Maiden"
INDEX 01 26:30:30
TRACK 07 AUDIO
TITLE "Still Life"
PERFORMER "Iron Maiden"
INDEX 01 26:44:32
TRACK 08 AUDIO
TITLE "Quest For Fire"
PERFORMER "Iron Maiden"
INDEX 01 31:26:37
TRACK 09 AUDIO
TITLE "Sun And Steel"
PERFORMER "Iron Maiden"
INDEX 01 35:08:65
TRACK 10 AUDIO
TITLE "To Tame A Land"
PERFORMER "Iron Maiden"
INDEX 01 38:35:55


"Лог"
Exact Audio Copy V0.99 prebeta 5 from 4. May 2009

EAC extraction logfile from 29. April 2010, 22:07

Iron Maiden / Piece Of Mind [CP32-5109]

Used drive : Optiarc DVD RW AD-7200A Adapter: 0 ID: 0

Read mode : Secure
Utilize accurate stream : Yes
Defeat audio cache : Yes
Make use of C2 pointers : No

Read offset correction : 48
Overread into Lead-In and Lead-Out : No
Fill up missing offset samples with silence : Yes
Delete leading and trailing silent blocks : No
Null samples used in CRC calculations : Yes
Used interface : Native Win32 interface for Win NT & 2000

Used output format : User Defined Encoder
Selected bitrate : 128 kBit/s
Quality : High
Add ID3 tag : No
Command line compressor : C:\Program Files\Exact Audio Copy\Flac\flac.exe
Additional command line options : -8 -V -T "artist=%a" -T "title=%t" -T "album=%g" -T "date=%y" -T "tracknumber=%n" -T "genre=%m" -T "comment=EAC 0.9beta4 / FLAC 1.1.0 q6" %s

TOC of the extracted CD

Track | Start | Length | Start sector | End sector
---------------------------------------------------------
1 | 0:00.00 | 6:12.00 | 0 | 27899
2 | 6:12.00 | 6:49.35 | 27900 | 58609
3 | 13:01.35 | 3:50.20 | 58610 | 75879
4 | 16:51.55 | 5:26.17 | 75880 | 100346
5 | 22:17.72 | 4:12.33 | 100347 | 119279
6 | 26:30.30 | 0:14.02 | 119280 | 120331
7 | 26:44.32 | 4:42.05 | 120332 | 141486
8 | 31:26.37 | 3:42.28 | 141487 | 158164
9 | 35:08.65 | 3:26.65 | 158165 | 173679
10 | 38:35.55 | 7:26.05 | 173680 | 207134

Range status and errors

Selected range

Filename Y:\Музыка\Iron Maiden\1983 Piece Of Mind\Iron Maiden - Piece Of Mind [CP32-5109].wav

Peak level 100.0 %
Range quality 99.9 %
Copy CRC ADB619E7
Copy OK

No errors occurred

End of status report


"Лог+АккРип"
Exact Audio Copy V0.99 prebeta 5 from 4. May 2009

Отчёт EAC об извлечении, выполненном 22. июня 2010, 0:32

Iron Maiden / Piece Of Mind [CP32-5109]

Дисковод: MATSHITADVD-RAM UJ-850S Adapter: 0 ID: 0

Режим чтения : Достоверность
Использование точного потока : Да
Отключение кэша аудио : Да
Использование указателей C2 : Нет

Коррекция смещения при чтении : 102
Способность читать области Lead-in и Lead-out : Нет
Заполнение пропущенных сэмплов тишиной : Да
Удаление блоков с тишиной в начале и конце : Нет
При вычислениях CRC использовались нулевые сэмплы : Да
Интерфейс : Установленный внешний ASPI-интерфейс

Выходной формат : Пользовательский кодировщик
Выбранный битрейт : 128 kBit/s
Качество : Высокий
Добавление ID3-тэга : Нет
Утилита сжатия : C:\Program Files\Exact Audio Copy\Flac\flac.exe
Дополнительные параметры : -6 -V -T "artist=%a" -T "title=%t" -T "album=%g" -T "date=%y" -T "tracknumber=%n" -T "genre=%m" -T "comment=EAC 0.99beta5 / FLAC 1.1.0 q6" %s


TOC извлечённого CD

Трек | Старт | Длительность | Начальный сектор | Конечный сектор
---------------------------------------------------------------------
1 | 0:00.00 | 6:12.00 | 0 | 27899
2 | 6:12.00 | 6:49.35 | 27900 | 58609
3 | 13:01.35 | 3:50.20 | 58610 | 75879
4 | 16:51.55 | 5:26.17 | 75880 | 100346
5 | 22:17.72 | 4:12.33 | 100347 | 119279
6 | 26:30.30 | 0:14.02 | 119280 | 120331
7 | 26:44.32 | 4:42.05 | 120332 | 141486
8 | 31:26.37 | 3:42.28 | 141487 | 158164
9 | 35:08.65 | 3:26.65 | 158165 | 173679
10 | 38:35.55 | 7:26.05 | 173680 | 207134


Характеристики диапазона извлечения и сообщения об ошибках

Выбранный диапазон

Имя файла Y:\Музыка\Iron Maiden\1983 Piece Of Mind\Iron Maiden - Piece Of Mind [CP32-5109].wav

Пиковый уровень 100.0 %
Качество диапазона 99.9 %
CRC копии ADB619E7
Копирование... OK

Ошибок не произошло


AccurateRip: сводка

Трек 1 точное извлечение (доверие 4) [22EB4FFC]
Трек 2 точное извлечение (доверие 4) [8D44A4AE]
Трек 3 точное извлечение (доверие 4) [EABE0FC7]
Трек 4 точное извлечение (доверие 4) [7C7C46BD]
Трек 5 точное извлечение (доверие 4) [677EC33F]
Трек 6 точное извлечение (доверие 4) [55FAD1E2]
Трек 7 точное извлечение (доверие 4) [F9D37E1E]
Трек 8 точное извлечение (доверие 4) [CBADF5C1]
Трек 9 точное извлечение (доверие 4) [953B5931]
Трек 10 точное извлечение (доверие 4) [E3A6BDB0]

Все треки извлечены точно

Конец отчёта


Состав:
Bruce Dickinson: Vocals
Steve Harris: Bass
Dave Murray: Lead & Rhythm Guitar
Adrian Smith: Lead & Rhythm Guitar
Nicko McBrain: Drums

Народ

_________________
Витасу до Даймонда как Алсу до Руссоса | При переразмещении - спрашивать разрешение!!


Last edited by iezuit on 21 Jun 2010, edited 1 time in total.

Top
 Profile  
 
 
PostPosted: 30 Apr 2010 
Пионэръ
Joined: 08 Mar 2010
Posts: 36
Lоcаtion: Россия
Age: 39
Name: Иван
:thanx:


Top
 Profile E-mail  
 
 
PostPosted: 21 Jun 2010 
ыыыы
User avatar
Joined: 17 May 2009
Posts: 952
Lоcаtion: Пушкино, МО
Age: 40
Name: Дмитрий
http://avaxhome.ws/music/metal/iron_mai ... -5109.html
Щас выложу нормальный лог. Кто тут есть с аваксахома -киньте им, а то меня забанили с формулировкой !!!ДУРАК!!! :nunu: Жопошники ))))

_________________
Витасу до Даймонда как Алсу до Руссоса | При переразмещении - спрашивать разрешение!!


Top
 Profile  
 
 
PostPosted: 22 Jun 2010 
Motörheadache
User avatar
Joined: 04 Feb 2010
Posts: 1294
Lоcаtion: Впереди- горы,позади-степи
Age: 45
Name: Александр
Fly, on your way, like an eagle,
Fly as high as the sun,
On your way, like an eagle,
Fly and touch the sun.....
:true: :true: :true:

_________________
Eine Nation, Ein Land, Eine Schnaps!

Наш священный долг:защищать Родину,и соблюдать правила личной гигиены....!


Top
 Profile E-mail  
 
 
PostPosted: 22 Jun 2010 
Хиппей (support team)
User avatar
Joined: 30 Jul 2007
Posts: 108957
Lоcаtion: Киев (Kyiv, UA)
Age: 45
Name: Andrey
iezuit wrote:
Кто тут есть с аваксахома -киньте им

Нехай гуглят, умники :crazy:

_________________


Top
 Profile E-mail  
 
Display posts from previous:  Sort by  
Post new topic Reply to topic  [ 5 posts ] 

All times are UTC + 3 hours


Who is online

Users browsing this forum: No registered users and 1 guest


You cannot post new topics in this forum
You cannot reply to topics in this forum
You cannot edit your posts in this forum
You cannot delete your posts in this forum
You cannot post attachments in this forum

Search for:
Яндекс.Метрика
Powered by phpBB © 2000, 2002, 2005, 2007 phpBB Group