\m/ 80's metal \m/

Информационно-аналитический форум "80 см пыли" (In Search We Trust) "У нас никто никуда не спешит"
Me For You - http://me-4u.com
It is currently 18 Dec 2018

All times are UTC + 3 hours

Spoiler
Chat - temporary registration for foreign users (please leave your application here)







Post new topic Reply to topic  [ 2 posts ] 
Author Message
 
PostPosted: 08 Nov 2009 
ыыыы
User avatar
Joined: 17 May 2009
Posts: 952
Lоcаtion: Пушкино, МО
Age: 40
Name: Дмитрий
Iron Maiden - Live After Death Japan 1st Press 1986 "Black Triangle"


Image


Дата первоначального выпуска: 14.10.1985
Дата выпуска в Японии: 1.3.1986
Позиция в чартах: 2
Продюсер: Martin "Live Animal" Birch
Место записи: Long Beach Arena, USA
Звукоинженеры: Martin Birch
Менеджер: Rod "The Raiders" Smallwood и Andy "L.B.C" Taylor
Автор обложки: Derek "R. I. P." Riggs

Немного о самом издании.
Похожие на серию компакт-дисков "Target" от Warner Brother, компакт-диски серии "Черный треугольник" ("Black Triangle") от Toshiba EMI - это компакт-диски первого поколения выпущенные в Японии. Так же, как и у "Target" название происходит от дизайна обложки, которая была использована на компакт-диске. Эти диски были выпущены в период с 1983 по 1987 год и были в печати в течение ограниченного времени. Они высоко ценятся, потому они являются результатом точного копирования японских мастер-лент. Несколько из наиболее известных релизов этой серии- "Abbey Road" и "Wings Greatest", источники которых были LP мастер-ленты. Эти записи не имеют дефектов шипения и связанных с этим проблем по урезанию частот, являются очень динамичными.

Recording line-up:

Bruce Dickinson: Vocals
Steve Harris: Bass
Dave Murray: Lead & Rhythm Guitar
Adrian Smith: Lead & Rhythm Guitar
Nicko McBrain: Drums

Songs:

1. Aces High 05:29
2. 2 Minutes to Midnight 06:07
3. The Trooper 04:26
4. Revelations 06:11
5. Flight of Icarus 03:49
6. Rime of the Ancient Mariner 13:09
7. Powerslave 07:34
8. The Number of the Beast 04:35
9. Hallowed Be Thy Name 07:29
10. Iron Maiden 04:23
11. Run to the Hills 03:51
12. Running Free 03:24
====================
Playing time: 60:27

Released: Japan 1986 TOSHIBA E.M.I.
Cat #: CP32-5110
Matrix: CP32-5110 1A4 TO

Narod
MEGAUPLOAD

Log
EAC extraction logfile from 8. November 2009, 18:15 for CD
Iron Maiden / Live After Death [CP32-5110]

Used drive : ASUS DRW-2014S1 Adapter: 0 ID: 0
Read mode : Secure with NO C2, accurate stream, disable cache
Read offset correction : 6
Overread into Lead-In and Lead-Out : No

Used output format : Internal WAV Routines
44.100 Hz; 16 Bit; Stereo

Other options :
Fill up missing offset samples with silence : Yes
Delete leading and trailing silent blocks : No
Installed external ASPI interface


Range status and errors
Selected range
Filename Y:\Музыка\Iron Maiden\1985 Live After Death\Iron Maiden - Live After Death [CP32-5110].wav

Peak level 86.9 %
Range quality 99.9 %
CRC E6492438
Copy OK

No errors occured

End of status report

------------------------------------------------------------

EAC extraction logfile from 8. November 2009, 18:15 for CD
Iron Maiden / Live After Death [CP32-5110]

Used drive : ASUS DRW-2014S1 Adapter: 0 ID: 0
Read mode : Secure with NO C2, accurate stream, disable cache
Read offset correction : 6
Overread into Lead-In and Lead-Out : No

Used output format : Internal WAV Routines
44.100 Hz; 16 Bit; Stereo

Other options :
Fill up missing offset samples with silence : Yes
Delete leading and trailing silent blocks : No
Installed external ASPI interface


Range status and errors
Selected range
Filename Y:\Музыка\Iron Maiden\1985 Live After Death\Iron Maiden - Live After Death [CP32-5110].wav

Peak level 86.9 %
Range quality 99.9 %
CRC E6492438
Copy OK

No errors occured

End of status report


Куй работает
REM GENRE "British Heavy Metal"
REM DATE 1985
REM DISCID AC108A0C
REM COMMENT "ExactAudioCopy v0.95b4"
PERFORMER "Iron Maiden"
TITLE "Live After Death [CP32-5110]"
FILE "Iron Maiden - Live After Death [CP32-5110].flac" WAVE
TRACK 01 AUDIO
TITLE "Aces High"
PERFORMER "Iron Maiden"
INDEX 01 00:00:00
TRACK 02 AUDIO
TITLE "2 Minutes To Midnight"
PERFORMER "Iron Maiden"
INDEX 01 05:29:17
TRACK 03 AUDIO
TITLE "The Trooper"
PERFORMER "Iron Maiden"
INDEX 01 11:37:10
TRACK 04 AUDIO
TITLE "Revelations"
PERFORMER "Iron Maiden"
INDEX 01 16:04:07
TRACK 05 AUDIO
TITLE "Flight Of Icarus"
PERFORMER "Iron Maiden"
INDEX 01 22:15:67
TRACK 06 AUDIO
TITLE "Rime Of The Ancient Mariner"
PERFORMER "Iron Maiden"
INDEX 01 26:05:60
TRACK 07 AUDIO
TITLE "Powerslave"
PERFORMER "Iron Maiden"
INDEX 01 39:15:32
TRACK 08 AUDIO
TITLE "The Number Of The Beast"
PERFORMER "Iron Maiden"
INDEX 01 46:50:07
TRACK 09 AUDIO
TITLE "Hallowed Be Thy Name"
PERFORMER "Iron Maiden"
INDEX 01 51:25:15
TRACK 10 AUDIO
TITLE "Iron Maiden"
PERFORMER "Iron Maiden"
INDEX 01 58:54:67
TRACK 11 AUDIO
TITLE "Run To The Hills"
PERFORMER "Iron Maiden"
INDEX 01 63:18:22
TRACK 12 AUDIO
TITLE "Running Free"
PERFORMER "Iron Maiden"
INDEX 01 67:10:00

_________________
Витасу до Даймонда как Алсу до Руссоса | При переразмещении - спрашивать разрешение!!


Last edited by iezuit on 12 Nov 2009, edited 3 times in total.

Top
 Profile  
 
 
PostPosted: 08 Nov 2009 
HAMMER
User avatar
Joined: 16 May 2009
Posts: 5459
Lоcаtion: Тверь
Age: 46
Name: Александр
Yeahhh. Thanks


Top
 Profile E-mail  
 
Display posts from previous:  Sort by  
Post new topic Reply to topic  [ 2 posts ] 

All times are UTC + 3 hours


Who is online

Users browsing this forum: No registered users and 1 guest


You cannot post new topics in this forum
You cannot reply to topics in this forum
You cannot edit your posts in this forum
You cannot delete your posts in this forum
You cannot post attachments in this forum

Search for:
Яндекс.Метрика
Powered by phpBB © 2000, 2002, 2005, 2007 phpBB Group