\m/ 80's metal \m/

Информационно-аналитический форум "80 см пыли" (In Search We Trust) "У нас никто никуда не спешит"
Me For You - http://me-4u.com
It is currently 14 Dec 2018

All times are UTC + 3 hours

Spoiler
Chat - temporary registration for foreign users (please leave your application here)







Post new topic Reply to topic  [ 5 posts ] 
Author Message
 
PostPosted: 07 Nov 2009 
ыыыы
User avatar
Joined: 17 May 2009
Posts: 952
Lоcаtion: Пушкино, МО
Age: 40
Name: Дмитрий
Iron Maiden - Somewhere In Time - Japan 1st Press CP32-5158


Image


Это тот шедевр, который я по-настоящему люблю :) Настоящее сочетание японской любви к року и первозданного звука Монстров Рока!!

Recording line-up:

Bruce Dickinson: Vocals
Steve Harris: Bass
Dave Murray: Lead & Rhythm Guitar
Adrian Smith: Lead & Rhythm Guitar
Nicko McBrain: Drums

Songs:

1. Caught Somewhere in Time 07:26
2. Wasted Years 05:07
3. Sea of Madness 05:42
4. Heaven Can Wait 07:20
5. The Loneliness of the Long Distance Runner 06:30
6. Stranger in a Strange Land 05:44
7. Deja-Vu 04:56
8. Alexander the Great 08:35
====================
Playing time: 51:20

Released: Japan 1986 Toshiba EMI
Cat #: CP32-5158
Matrix: CP32-5158 1A3 TO

Narod
MEGAUPLOAD

Log
EAC extraction logfile from 7. November 2009, 15:12 for CD
IRON MAIDEN / SOMEWHERE IN TIME [CP32-5158]

Used drive : ASUS DRW-2014S1 Adapter: 0 ID: 0
Read mode : Secure with NO C2, accurate stream, disable cache
Read offset correction : 6
Overread into Lead-In and Lead-Out : No

Used output format : Internal WAV Routines
44.100 Hz; 16 Bit; Stereo

Other options :
Fill up missing offset samples with silence : Yes
Delete leading and trailing silent blocks : No
Installed external ASPI interface


Range status and errors
Selected range
Filename Y:\Музыка\Iron Maiden\1986 Somewhere in time\IRON MAIDEN - SOMEWHERE IN TIME [CP32-5158].wav

Peak level 95.1 %
Range quality 100.0 %
CRC 4A3A847C
Copy OK

No errors occured

End of status report

------------------------------------------------------------

EAC extraction logfile from 7. November 2009, 15:12 for CD
IRON MAIDEN / SOMEWHERE IN TIME [CP32-5158]

Used drive : ASUS DRW-2014S1 Adapter: 0 ID: 0
Read mode : Secure with NO C2, accurate stream, disable cache
Read offset correction : 6
Overread into Lead-In and Lead-Out : No

Used output format : Internal WAV Routines
44.100 Hz; 16 Bit; Stereo

Other options :
Fill up missing offset samples with silence : Yes
Delete leading and trailing silent blocks : No
Installed external ASPI interface


Range status and errors
Selected range
Filename Y:\Музыка\Iron Maiden\1986 Somewhere in time\IRON MAIDEN - SOMEWHERE IN TIME [CP32-5158].wav

Peak level 95.1 %
Range quality 100.0 %
CRC 4A3A847C
Copy OK

No errors occured

End of status report


Годный Куй
REM GENRE "Heavy Metal"
REM DATE 1987
REM DISCID 770C0B08
REM COMMENT "ExactAudioCopy v0.95b4"
PERFORMER "IRON MAIDEN"
TITLE "SOMEWHERE IN TIME [CP32-5158]"
FILE "IRON MAIDEN - SOMEWHERE IN TIME [CP32-5158].flac" WAVE
TRACK 01 AUDIO
TITLE "Caught Somewhere In Time"
PERFORMER "IRON MAIDEN"
INDEX 01 00:00:00
TRACK 02 AUDIO
TITLE "Wasted Years"
PERFORMER "IRON MAIDEN"
INDEX 01 07:26:05
TRACK 03 AUDIO
TITLE "Sea Of Madness"
PERFORMER "IRON MAIDEN"
INDEX 01 12:33:47
TRACK 04 AUDIO
TITLE "Heaven Can Wait"
PERFORMER "IRON MAIDEN"
INDEX 01 18:15:60
TRACK 05 AUDIO
TITLE "The Loneliness Of The Long Distance Runner"
PERFORMER "IRON MAIDEN"
INDEX 01 25:36:47
TRACK 06 AUDIO
TITLE "Stranger In A Strange Land"
PERFORMER "IRON MAIDEN"
INDEX 01 32:07:40
TRACK 07 AUDIO
TITLE "Deja-Vu"
PERFORMER "IRON MAIDEN"
INDEX 01 37:52:05
TRACK 08 AUDIO
TITLE "Alexander The Great"
PERFORMER "IRON MAIDEN"
INDEX 01 42:48:07

_________________
Витасу до Даймонда как Алсу до Руссоса | При переразмещении - спрашивать разрешение!!


Last edited by iezuit on 12 Nov 2009, edited 3 times in total.

Top
 Profile  
 
 
PostPosted: 07 Nov 2009 
Thrasher
User avatar
Joined: 07 Oct 2007
Posts: 2756
Lоcаtion: Russia, Moscow
Age: 34
Name: Drunk & Evil
Ооооо, вот ето вещуга :true: :true: :true: :thanx:

_________________
ВОДКА, БАБЫ И БЛЮЗ / 40° till death... :bodun:
One time we saw some hookers, but when we got closer, we realised it was Mötley Crüe. ©


Top
 Profile  
 
 
PostPosted: 07 Nov 2009 
ыыыы
User avatar
Joined: 17 May 2009
Posts: 952
Lоcаtion: Пушкино, МО
Age: 40
Name: Дмитрий
Попьем Кирюх, попьём!!!! :bodun:

_________________
Витасу до Даймонда как Алсу до Руссоса | При переразмещении - спрашивать разрешение!!


Top
 Profile  
 
 
PostPosted: 07 Nov 2009 
Хиппей (support team)
User avatar
Joined: 30 Jul 2007
Posts: 108901
Lоcаtion: Киев (Kyiv, UA)
Age: 45
Name: Andrey
:true:

_________________


Top
 Profile E-mail  
 
 
PostPosted: 08 Nov 2009 
HAMMER
User avatar
Joined: 16 May 2009
Posts: 5459
Lоcаtion: Тверь
Age: 46
Name: Александр
Спасибо.


Top
 Profile E-mail  
 
Display posts from previous:  Sort by  
Post new topic Reply to topic  [ 5 posts ] 

All times are UTC + 3 hours


Who is online

Users browsing this forum: No registered users and 1 guest


You cannot post new topics in this forum
You cannot reply to topics in this forum
You cannot edit your posts in this forum
You cannot delete your posts in this forum
You cannot post attachments in this forum

Search for:
Яндекс.Метрика
Powered by phpBB © 2000, 2002, 2005, 2007 phpBB Group