\m/ 80's metal \m/

Информационно-аналитический форум "80 см пыли" (In Search We Trust) "У нас никто никуда не спешит"
Me For You - http://me-4u.com
It is currently 10 Dec 2018

All times are UTC + 3 hours

Spoiler
Chat - temporary registration for foreign users (please leave your application here)







Post new topic Reply to topic  [ 52 posts ]  Go to page 1, 2, 3  Next
Author Message
 
PostPosted: 26 Oct 2009 
5-speed satisfactor
User avatar
Joined: 16 Feb 2009
Posts: 3630
Lоcаtion: New York, USA
Age: 40
Name: Leonid
Здесь.

http://www.megaupload.com/?d=4GFTNT13 (одним файлом)

Рипы мои с родных компактов. Оцифровки демок тоже мои с кассет неизвестного, но небольшого (1-го или 2-ого или может от силы 3-его) поколения.

На каждой из 2х демок между треками не должно быть никаких PRE-GAPs, если вы не хотите щелчков.

Ухожу в отпуск. В течение 3х недель ничего заливать не буду. Может только качну пару лосей.




Iron Angel - 1984 - Power Metal Attack (demo tape) [flac]

Image

Line-up:
Dirk Schroder - Vocals
Peter Wittke - Guitar
Sven Struven - Guitar
Thorsten Lohmann - Bass
Mike Mattes - Drums

    1. Open the Gate (intro) - 01:17
    2. Devil's Gate - 03:37
    3. Rush of Power - 03:32
    4. Maniac of the Night - 04:28
    5. Sea of Flames - 03:02
    6. Wife of the Devil - 04:00
    7. Hounds of Hell - 06:21

    TPT: 26:18

Mega
Narod

Iron Angel - 1984 - Power Metal Attack (demo tape - second version) [flac]

    1. Open the Gate (intro) - 01:18
    2. Devil's Gate - 03:39
    3. Rush of Power - 03:34
    4. Maniac of the Night - 04:30
    5. Sea of Flames - 03:03
    6. Wife of the Devil - 04:01
    7. Hounds of Hell - 06:21
    8. Heavy Metal Soldiers - 04:02

    TPT: 30:28

Mega
Narod

Iron Angel - 1985 - Hellish Crossfire [flac]

Image

Line-up:
Dirk Schroder - Vocals
Mike Mattes - Drums
Thorsten Lohmann - Bass
Sven Struven - Guitar
Peter Wittke - Guitar

    1. The Metallian - 04:17
    2. Sinner 666 - 02:50
    3. Black Mass - 05:48
    4. The Church Of Lost Souls - 03:11
    5. Hunter In Chains - 04:37
    6. Rush Of Power - 03:25
    7. Legions Of Evil - 04:53
    8. Wife Of The Devil - 03:48
    9. Nightmare - 05:25
    10. Heavy Metal Soldiers - 03:05

    TPT: 41:19

Mega
Narod

log
Exact Audio Copy V0.99 prebeta 5 from 4. May 2009

EAC extraction logfile from 26. October 2009, 10:56

Iron Angel / Hellish Crossfire

Used drive : MATSHITADVD-R UJ-867 Adapter: 0 ID: 0

Read mode : Secure
Utilize accurate stream : Yes
Defeat audio cache : No
Make use of C2 pointers : Yes

Read offset correction : 102
Overread into Lead-In and Lead-Out : No
Fill up missing offset samples with silence : Yes
Delete leading and trailing silent blocks : No
Null samples used in CRC calculations : No
Used interface : Native Win32 interface for Win NT & 2000

Used output format : User Defined Encoder
Selected bitrate : 768 kBit/s
Quality : High
Add ID3 tag : No
Command line compressor : C:\Program Files\Exact Audio Copy\FLAC\FLAC.EXE
Additional command line options : -8 -V -T "ARTIST=%a" -T "TITLE=%t" -T "ALBUM=%g" -T "DATE=%y" -T "TRACKNUMBER=%n" -T "GENRE=%m" -T "COMMENT=%e" %s -o %d


TOC of the extracted CD

Track | Start | Length | Start sector | End sector
---------------------------------------------------------
1 | 0:00.00 | 4:18.42 | 0 | 19391
2 | 4:18.42 | 2:50.40 | 19392 | 32181
3 | 7:09.07 | 5:47.68 | 32182 | 58274
4 | 12:57.00 | 3:10.65 | 58275 | 72589
5 | 16:07.65 | 4:38.35 | 72590 | 93474
6 | 20:46.25 | 3:25.10 | 93475 | 108859
7 | 24:11.35 | 4:53.17 | 108860 | 130851
8 | 29:04.52 | 3:47.38 | 130852 | 147914
9 | 32:52.15 | 5:25.12 | 147915 | 172301
10 | 38:17.27 | 3:02.48 | 172302 | 185999


Range status and errors

Selected range

Filename C:\Documents and Settings\leonid\My Documents\My Music\ToCD\Iron Angel\Iron Angel - Hellish Crossfire.wav

Peak level 89.6 %
Range quality 100.0 %
Copy CRC 6725D3CE
Copy OK

No errors occurred

End of status report


cue
REM GENRE "Speed Metal"
REM DATE 1985
REM DISCID 9A09B00A
REM COMMENT "ExactAudioCopy v0.99pb5"
PERFORMER "Iron Angel"
TITLE "Hellish Crossfire"
FILE "Iron Angel - Hellish Crossfire.wav" WAVE
TRACK 01 AUDIO
TITLE "The Metallian"
PERFORMER "Iron Angel"
INDEX 01 00:00:00
TRACK 02 AUDIO
TITLE "Sinner"
PERFORMER "Iron Angel"
INDEX 00 04:15:00
INDEX 01 04:18:42
TRACK 03 AUDIO
TITLE "Black Mass"
PERFORMER "Iron Angel"
INDEX 00 07:06:50
INDEX 01 07:09:07
TRACK 04 AUDIO
TITLE "The Church Of The Lost Souls"
PERFORMER "Iron Angel"
INDEX 00 12:55:00
INDEX 01 12:57:00
TRACK 05 AUDIO
TITLE "Hunter In Chains"
PERFORMER "Iron Angel"
INDEX 00 16:06:00
INDEX 01 16:07:65
TRACK 06 AUDIO
TITLE "Rush Of Power"
PERFORMER "Iron Angel"
INDEX 00 20:43:25
INDEX 01 20:46:25
TRACK 07 AUDIO
TITLE "Legions Of Evil"
PERFORMER "Iron Angel"
INDEX 00 24:09:30
INDEX 01 24:11:35
TRACK 08 AUDIO
TITLE "Wife Of The Devil"
PERFORMER "Iron Angel"
INDEX 00 29:02:25
INDEX 01 29:04:52
TRACK 09 AUDIO
TITLE "Nightmare"
PERFORMER "Iron Angel"
INDEX 00 32:50:25
INDEX 01 32:52:15
TRACK 10 AUDIO
TITLE "Heavy Metal Soldiers"
PERFORMER "Iron Angel"
INDEX 00 38:15:00
INDEX 01 38:17:27


Iron Angel - 1986 - Winds Of War [flac]

Image

    1. Winds Of War - 02:13
    2. Metalstorm - 03:27
    3. Son Of A Bitch - 03:29
    4. Vicious - 04:18
    5. Born To Rock - 03:57
    6. Fight For Your Life - 04:32
    7. Stronger Than Steel - 05:54
    8. Sea Of Flames - 05:18
    9. Creatures Of Destruction - 04:14
    10. Back To The Silence - 01:53

    TPT: 39:15

Mega
Narod

log
EAC extraction logfile from 26. October 2009, 10:38 for CD
Iron Angel / Winds Of War

Used drive : PLEXTOR DVDR PX-760A Adapter: 1 ID: 0
Read mode : Secure with C2, accurate stream, disable cache
Read offset correction : 30
Overread into Lead-In and Lead-Out : Yes

Used output format : Internal WAV Routines
44.100 Hz; 16 Bit; Stereo
Use compression offset : 2257

Other options :
Fill up missing offset samples with silence : Yes
Delete leading and trailing silent blocks : No
Installed external ASPI interface


Range status and errors
Selected range
Filename N:\ToCD\Iron Angel\Iron Angel - Winds Of War.wav

Peak level 87.3 %
Range quality 100.0 %
CRC F70CECAB
Copy OK

No errors occured

End of status report


cue
REM GENRE "Speed Metal"
REM DATE 1986
REM DISCID 6C09380A
REM COMMENT "ExactAudioCopy v0.95b2"
PERFORMER "Iron Angel"
TITLE "Winds Of War"
FILE "Iron Angel - Winds Of War.wav" WAVE
TRACK 01 AUDIO
TITLE "Winds Of War"
PERFORMER "Iron Angel"
INDEX 01 00:00:00
TRACK 02 AUDIO
TITLE "Metalstorm"
PERFORMER "Iron Angel"
INDEX 00 02:14:12
INDEX 01 02:14:15
TRACK 03 AUDIO
TITLE "Son Of A Bitch"
PERFORMER "Iron Angel"
INDEX 00 05:39:50
INDEX 01 05:41:22
TRACK 04 AUDIO
TITLE "Vicious"
PERFORMER "Iron Angel"
INDEX 00 09:08:00
INDEX 01 09:10:57
TRACK 05 AUDIO
TITLE "Born To Rock"
PERFORMER "Iron Angel"
INDEX 00 13:27:25
INDEX 01 13:30:25
TRACK 06 AUDIO
TITLE "Fight For Your Life"
PERFORMER "Iron Angel"
INDEX 00 17:26:00
INDEX 01 17:28:37
TRACK 07 AUDIO
TITLE "Stronger Than Steel"
PERFORMER "Iron Angel"
INDEX 00 21:58:00
INDEX 01 22:00:00
TRACK 08 AUDIO
TITLE "Sea Of Flames"
PERFORMER "Iron Angel"
INDEX 00 27:52:00
INDEX 01 27:52:02
TRACK 09 AUDIO
TITLE "Creatures Of Destruction"
PERFORMER "Iron Angel"
INDEX 00 33:10:00
INDEX 01 33:11:50
TRACK 10 AUDIO
TITLE "Back To The Silence"
PERFORMER "Iron Angel"
INDEX 00 37:26:00
INDEX 01 37:28:00

_________________
Death rules! Metal to all who oppose!


Top
 Profile  
 
 
PostPosted: 01 Nov 2009 
5-speed satisfactor
User avatar
Joined: 16 Feb 2009
Posts: 3630
Lоcаtion: New York, USA
Age: 40
Name: Leonid
Кто-нить скачал? Я хочу удалить рипы с хард диска.

_________________
Death rules! Metal to all who oppose!


Last edited by metaleonid on 01 Nov 2009, edited 1 time in total.

Top
 Profile  
 
 
PostPosted: 01 Nov 2009 
Хиппей (support team)
User avatar
Joined: 30 Jul 2007
Posts: 108779
Lоcаtion: Киев (Kyiv, UA)
Age: 45
Name: Andrey
Спасибо :thanx:
Не качал еще. Надеюсь, лось пролежит на Меге минимум до НГ.

_________________


Top
 Profile E-mail  
 
 
PostPosted: 01 Nov 2009 
Thrasher
User avatar
Joined: 07 Oct 2007
Posts: 2756
Lоcаtion: Russia, Moscow
Age: 34
Name: Drunk & Evil
Спасибо, качаю!!!

_________________
ВОДКА, БАБЫ И БЛЮЗ / 40° till death... :bodun:
One time we saw some hookers, but when we got closer, we realised it was Mötley Crüe. ©


Top
 Profile  
 
 
PostPosted: 01 Nov 2009 
Power Metal Maniac
User avatar
Joined: 09 Aug 2008
Posts: 6424
Lоcаtion: Москва
Age: 40
Name: Егор
Если что, у меня 2 таких родных компакта тоже есть ;)

_________________
Long Live Metal!


Top
 Profile  
 
 
PostPosted: 01 Nov 2009 
Работнечег
User avatar
Joined: 28 Aug 2007
Posts: 5597
Lоcаtion: г. Москва
Age: 29
Name: Дима
А я наверное 900 мегов не потяну качать...Видимо как-нибудь ближе к НГ)


Top
 Profile E-mail  
 
 
PostPosted: 01 Nov 2009 
Хиппей (support team)
User avatar
Joined: 30 Jul 2007
Posts: 108779
Lоcаtion: Киев (Kyiv, UA)
Age: 45
Name: Andrey
С трудом и жутким трением, но таки пропихнул лосика на Народ :dance:
http://narod.ru/disk/14674845000/Iron%20Angel.rar.html Теперь буду беречь его :good:

_________________


Top
 Profile E-mail  
 
 
PostPosted: 01 Nov 2009 
Metal Collector
User avatar
Joined: 16 Nov 2008
Posts: 1230
Lоcаtion: Химки
Age: 35
Name: Андрей
А от меня спасибо за оба первопресса!


Top
 Profile E-mail  
 
 
PostPosted: 18 Nov 2009 
Хиппей (support team)
User avatar
Joined: 30 Jul 2007
Posts: 108779
Lоcаtion: Киев (Kyiv, UA)
Age: 45
Name: Andrey
metaleonid wrote:
Рипы мои с родных компактов. Оцифровки демок тоже мои с кассет неизвестного, но небольшого (1-го или 2-ого или может от силы 3-его) поколения.

Лёнь, а вот то, что издавалось на Marquee в 2004-м в виде бонусов, звучит так же или хуже?
Хм, если ты, конечно, слушал тот вариант...

Я пока лишь две первые демки успел оценить :oops:

_________________


Top
 Profile E-mail  
 
 
PostPosted: 18 Nov 2009 
Power Metal Maniac
User avatar
Joined: 09 Aug 2008
Posts: 6424
Lоcаtion: Москва
Age: 40
Name: Егор
Scatterbrain
бонусы, насколько я помню, звучат отвратительно.

_________________
Long Live Metal!


Top
 Profile  
 
 
PostPosted: 18 Nov 2009 
Хиппей (support team)
User avatar
Joined: 30 Jul 2007
Posts: 108779
Lоcаtion: Киев (Kyiv, UA)
Age: 45
Name: Andrey
Да? Хм, ну может в сравнении с полным альбомом они и звучат отвратительно (чего я постоянно и ненавижу в переизданиях :beee:) Но вот у Леонида эти две демки звучат весьма трушно.
Да, рип с ленты, но достаточно (максимально) качественный.


Кста, такой вот наивный вопрос. А как вы будете записывать демки на сдр-болванку, если для них нет куя?

_________________


Top
 Profile E-mail  
 
 
PostPosted: 18 Nov 2009 
Power Metal Maniac
User avatar
Joined: 09 Aug 2008
Posts: 6424
Lоcаtion: Москва
Age: 40
Name: Егор
Scatterbrain
впрямую добавить файлы в EAC - в чем тут проблема-то?

_________________
Long Live Metal!


Top
 Profile  
 
 
PostPosted: 18 Nov 2009 
Хиппей (support team)
User avatar
Joined: 30 Jul 2007
Posts: 108779
Lоcаtion: Киев (Kyiv, UA)
Age: 45
Name: Andrey
EG Power wrote:
впрямую добавить файлы в EAC - в чем тут проблема-то?

Аа, ну я ж ни разу не записывал. Просто поинтересовался. Спасибо. Получается, лог нафек не нужен? :crazy:


Кстати, мож кому перезалить обе демки от Леонида и альбомы отдельно, пока у меня есть время и желание? :oops:

_________________


Top
 Profile E-mail  
 
 
PostPosted: 18 Nov 2009 
Metal Collector
User avatar
Joined: 16 Nov 2008
Posts: 1230
Lоcаtion: Химки
Age: 35
Name: Андрей
Quote:
Кста, такой вот наивный вопрос. А как вы будете записывать демки на сдр-болванку, если для них нет куя?

Куй делается за 2 секунды в соотв. прогах.


Top
 Profile E-mail  
 
 
PostPosted: 18 Nov 2009 
Хиппей (support team)
User avatar
Joined: 30 Jul 2007
Posts: 108779
Lоcаtion: Киев (Kyiv, UA)
Age: 45
Name: Andrey
А если не прописаны имена песен?

_________________


Top
 Profile E-mail  
 
 
PostPosted: 18 Nov 2009 
Power Metal Maniac
User avatar
Joined: 09 Aug 2008
Posts: 6424
Lоcаtion: Москва
Age: 40
Name: Егор
Scatterbrain
набить вручную)

залить обе демки!

_________________
Long Live Metal!


Top
 Profile  
 
 
PostPosted: 18 Nov 2009 
Хиппей (support team)
User avatar
Joined: 30 Jul 2007
Posts: 108779
Lоcаtion: Киев (Kyiv, UA)
Age: 45
Name: Andrey
Первая демка есть (см 1-й.пост). Куй мож сделаю позже :oops:

_________________


Top
 Profile E-mail  
 
 
PostPosted: 18 Nov 2009 
5-speed satisfactor
User avatar
Joined: 16 Feb 2009
Posts: 3630
Lоcаtion: New York, USA
Age: 40
Name: Leonid
Scatterbrain wrote:
Лёнь, а вот то, что издавалось на Marquee в 2004-м в виде бонусов, звучит так же или хуже?
Хм, если ты, конечно, слушал тот вариант...

Я пока лишь две первые демки успел оценить :oops:


Я Marquee не слышал, поэтому не могу сказать. Знаю, что в переизданиях студийных альбомов 1ый и 2ой каналы поменяны местами. Что такое трушно?

_________________
Death rules! Metal to all who oppose!


Top
 Profile  
 
 
PostPosted: 18 Nov 2009 
Хиппей (support team)
User avatar
Joined: 30 Jul 2007
Posts: 108779
Lоcаtion: Киев (Kyiv, UA)
Age: 45
Name: Andrey
metaleonid wrote:
Что такое трушно?

true-шно :oops:

_________________


Top
 Profile E-mail  
 
 
PostPosted: 18 Nov 2009 
Metal Collector
User avatar
Joined: 16 Nov 2008
Posts: 1230
Lоcаtion: Химки
Age: 35
Name: Андрей
трушно значит - классически и с яйцами :) например, тру метал - это классический металл с яйцами, как мановар )))


Top
 Profile E-mail  
 
Display posts from previous:  Sort by  
Post new topic Reply to topic  [ 52 posts ]  Go to page 1, 2, 3  Next

All times are UTC + 3 hours


Who is online

Users browsing this forum: No registered users and 1 guest


You cannot post new topics in this forum
You cannot reply to topics in this forum
You cannot edit your posts in this forum
You cannot delete your posts in this forum
You cannot post attachments in this forum

Search for:
Яндекс.Метрика
Powered by phpBB © 2000, 2002, 2005, 2007 phpBB Group