\m/ 80's metal \m/

Информационно-аналитический форум "80 см пыли" (In Search We Trust) "У нас никто никуда не спешит"
Me For You - http://me-4u.com
It is currently 17 Dec 2018

All times are UTC + 3 hours

Spoiler
Chat - temporary registration for foreign users (please leave your application here)







Post new topic Reply to topic  [ 13 posts ] 
Author Message
 
PostPosted: 08 Oct 2008 
Труъ
User avatar
Joined: 05 Oct 2008
Posts: 194
Lоcаtion: Saint Petersburg
Age: 45
Name: Jesse
INTENSE - Second Sight [FLAC]
Image
Year: 2004
Style: Melodic Power Speed Thrash
Country: UK
Format: FLAC
Size: 426Mb


Line-Up:
Sean Hetherington (Vocals)
Nick Palmer (Guitars)
Dave Peak (Guitars)
Adrian Lambert (Bass) (Biomechanical, Dragonforce, Son Of Science)
Neil Ablard (Drums)
Karl Groom (Keys) (Threshold, Shadowland)
Phil Wickens (Additional Keys)
Kara Sultan (Backing Vocals on 10)

Track List:
1. Premonition (Intro) 01:51
2. One Twenty 04:24
3. The Winged 05:32
4. War Of Angels (Dark Season II) 04:27
5. Seeds Of Betrayal 05:02
6. Skull Of Sidon 07:29
7. Inside Torment 04:47
8. Collision Of Destinies 04:58
9. Autumnheart 06:20
10. Path Of The Dark 06:26
11. Final Breath 04:48


Last edited by Scatterbrain on 15 Feb 2012, edited 3 times in total.
Ссылка ниже. Эта просрочена давно


Top
 Profile  
 
 
PostPosted: 08 Oct 2008 
Работнечег
User avatar
Joined: 28 Aug 2007
Posts: 5606
Lоcаtion: г. Москва
Age: 29
Name: Дима
Пасибо!Отличная группа! :true:


Top
 Profile E-mail  
 
 
PostPosted: 13 Jan 2009 
Хиппей (support team)
User avatar
Joined: 30 Jul 2007
Posts: 108950
Lоcаtion: Киев (Kyiv, UA)
Age: 45
Name: Andrey
Так вот прослушал альбом и он мне... понравился :shok:
Да, звук модерновый малость, скоростей маловато, альбом затянут почти до часу времени, но слушается с большим интересом.
На счёт павера ничего не скажу, но пост-трэша и хэви валом. Даже эпик-хэви, что точнее. Ну и прога некая частичка присутсвует.
Спасибо большое за очередное открытие :thanx:


Top
 Profile E-mail  
 
 
PostPosted: 13 Jan 2009 
Труъ
User avatar
Joined: 05 Oct 2008
Posts: 194
Lоcаtion: Saint Petersburg
Age: 45
Name: Jesse
Scatterbrain wrote:
Так вот прослушал альбом и он мне... понравился :shok:
Да, звук модерновый малость, скоростей маловато, альбом затянут почти до часу времени, но слушается с большим интересом.
На счёт павера ничего не скажу, но пост-трэша и хэви валом. Даже эпик-хэви, что точнее. Ну и прога некая частичка присутсвует.
Спасибо большое за очередное открытие :thanx:


У них есть ещё более свежий альбом, но он на лицензии (на Союзе) выходил, и вроде ещё с тиража не снят.


Top
 Profile  
 
 
PostPosted: 13 Jan 2009 
.
User avatar
Joined: 25 Aug 2007
Posts: 568
Lоcаtion: Москва
Age: 106
Name: Kostolom
Спасибо, послушаем, заценим.


Top
 Profile  
 
 
PostPosted: 13 Feb 2012 
Трешер
User avatar
Joined: 25 Feb 2011
Posts: 1062
Lоcаtion: Харьков
Age: 42
Name: Aleksandr
Да команда не плохая. 2007 немного Iced Earth напоминает . как то попался мне миник 1997 года Intense - Dark Season и после него решил собрать их дискографию.

Этот диск имеется , ищу 12 песенную версию этого альбома. или отдельно этот трэк - Bonus track:
12. The Way The Rivers Flow (05:55)


Top
 Profile E-mail  
 
 
PostPosted: 13 Feb 2012 
Хиппей (support team)
User avatar
Joined: 30 Jul 2007
Posts: 108950
Lоcаtion: Киев (Kyiv, UA)
Age: 45
Name: Andrey
Саш, тебе сюды :arrow: viewtopic.php?f=163&t=5834 :cow:

_________________


Top
 Profile E-mail  
 
 
PostPosted: 15 Feb 2012 
Хиппей (support team)
User avatar
Joined: 30 Jul 2007
Posts: 108950
Lоcаtion: Киев (Kyiv, UA)
Age: 45
Name: Andrey
mirror: Speedy l Narod

Intense - 2004 - Second Sight [flac]

Image

log
Exact Audio Copy V0.99 prebeta 5 from 4. May 2009

EAC extraction logfile from 24. December 2011, 12:40

Intense / Second Sight

Used drive : ATAPI iHAS624 B Adapter: 2 ID: 0

Read mode : Secure
Utilize accurate stream : Yes
Defeat audio cache : Yes
Make use of C2 pointers : No

Read offset correction : 6
Overread into Lead-In and Lead-Out : No
Fill up missing offset samples with silence : Yes
Delete leading and trailing silent blocks : No
Null samples used in CRC calculations : Yes
Used interface : Installed external ASPI interface

Used output format : User Defined Encoder
Selected bitrate : 40 kBit/s
Quality : High
Add ID3 tag : No
Command line compressor : C:\Program Files\Exact Audio Copy\Flac\flac.exe
Additional command line options : -6 -V %s


TOC of the extracted CD

Track | Start | Length | Start sector | End sector
---------------------------------------------------------
1 | 0:00.00 | 1:49.52 | 0 | 8226
2 | 1:49.52 | 4:22.04 | 8227 | 27880
3 | 6:11.56 | 5:30.02 | 27881 | 52632
4 | 11:41.58 | 4:25.11 | 52633 | 72518
5 | 16:06.69 | 5:00.59 | 72519 | 95077
6 | 21:07.53 | 7:27.21 | 95078 | 128623
7 | 28:34.74 | 4:45.30 | 128624 | 150028
8 | 33:20.29 | 4:56.21 | 150029 | 172249
9 | 38:16.50 | 6:18.63 | 172250 | 200662
10 | 44:35.38 | 6:24.42 | 200663 | 229504
11 | 51:00.05 | 4:46.43 | 229505 | 250997


Range status and errors

Selected range

Filename D:\Download\Intense - Second Sight.wav

Peak level 98.0 %
Range quality 100.0 %
Copy CRC B4ADC46F
Copy OK

No errors occurred


AccurateRip summary

Track 1 accurately ripped (confidence 1) [62F2BD31]
Track 2 accurately ripped (confidence 1) [C576CEB0]
Track 3 accurately ripped (confidence 1) [21D3D196]
Track 4 accurately ripped (confidence 1) [B312FE0C]
Track 5 accurately ripped (confidence 1) [E2801B6E]
Track 6 accurately ripped (confidence 1) [B48A5834]
Track 7 accurately ripped (confidence 1) [A19CA45E]
Track 8 accurately ripped (confidence 1) [CDC158FB]
Track 9 accurately ripped (confidence 1) [B45B6536]
Track 10 accurately ripped (confidence 1) [FA376A55]
Track 11 accurately ripped (confidence 1) [B1F9B23A]

All tracks accurately ripped

End of status report


cue
REM GENRE "Power Metal"
REM DATE 2004
REM DISCID 8E0D120B
REM COMMENT "ExactAudioCopy v0.99pb5"
PERFORMER "Intense"
TITLE "Second Sight"
FILE "Intense - Second Sight.flac" WAVE
TRACK 01 AUDIO
TITLE "Premonition"
PERFORMER "Intense"
INDEX 01 00:00:00
TRACK 02 AUDIO
TITLE "One Twenty"
PERFORMER "Intense"
INDEX 01 01:49:52
TRACK 03 AUDIO
TITLE "The Winged"
PERFORMER "Intense"
INDEX 01 06:11:56
TRACK 04 AUDIO
TITLE "War of Angels (DS 11)"
PERFORMER "Intense"
INDEX 01 11:41:58
TRACK 05 AUDIO
TITLE "Seeds of Betrayal"
PERFORMER "Intense"
INDEX 01 16:06:69
TRACK 06 AUDIO
TITLE "Skull of Sidon"
PERFORMER "Intense"
INDEX 01 21:07:53
TRACK 07 AUDIO
TITLE "Inside Torment"
PERFORMER "Intense"
INDEX 01 28:34:74
TRACK 08 AUDIO
TITLE "Collision of Destinies"
PERFORMER "Intense"
INDEX 01 33:20:29
TRACK 09 AUDIO
TITLE "Autumnheart"
PERFORMER "Intense"
INDEX 01 38:16:50
TRACK 10 AUDIO
TITLE "Path of The Dark"
PERFORMER "Intense"
INDEX 01 44:35:38
TRACK 11 AUDIO
TITLE "Final Breath"
PERFORMER "Intense"
INDEX 01 51:00:05


spectrum
Image

_________________


Top
 Profile E-mail  
 
 
PostPosted: 16 Feb 2012 
ТрэшЭрос
User avatar
Joined: 18 Jul 2011
Posts: 2300
Lоcаtion: Гулькевичи
Age: 43
Name: Александр
Scatterbrain, спасибо за обнову! :thanx: Вопрос: на облоге нет трека "Path Of The Dark" (06:26), который имеет место быть в файле. :oops:

_________________
Thrash no trash!!!


Top
 Profile E-mail  
 
 
PostPosted: 18 Feb 2012 
Хиппей (support team)
User avatar
Joined: 30 Jul 2007
Posts: 108950
Lоcаtion: Киев (Kyiv, UA)
Age: 45
Name: Andrey
MetallicAS wrote:
на облоге нет трека "Path Of The Dark" (06:26), который имеет место быть в файле.

Хм... И это более чем странно :scratch:
Позже разберусь :esel:

_________________


Top
 Profile E-mail  
 
 
PostPosted: 18 Feb 2012 
ТрэшЭрос
User avatar
Joined: 18 Jul 2011
Posts: 2300
Lоcаtion: Гулькевичи
Age: 43
Name: Александр
Вот как-то так в общем-то... :oops:

Image


Конец забавный!!! :nunu: :vic:

_________________
Thrash no trash!!!


Top
 Profile E-mail  
 
 
PostPosted: 18 Feb 2012 
Хиппей (support team)
User avatar
Joined: 30 Jul 2007
Posts: 108950
Lоcаtion: Киев (Kyiv, UA)
Age: 45
Name: Andrey
Забавно. Значит обложка левая. Или косяк принта :vic:
Я уже не помню, откуда рип спёр. Но ничего внутри не менял и не добавлял :pardon:

_________________


Top
 Profile E-mail  
 
 
PostPosted: 18 Feb 2012 
Прокъмитолист
User avatar
Joined: 12 Aug 2007
Posts: 6514
Lоcаtion: Санктъ-Петербуркъ
Age: 51
Name: Олекъ
на обложке косяк. я грабил и сканил такой же диск: вещей 11, а на заднике указано 10 :pardon:

_________________
прокъметол - это музыко, от которово есть прок (ы)


Top
 Profile  
 
Display posts from previous:  Sort by  
Post new topic Reply to topic  [ 13 posts ] 

All times are UTC + 3 hours


Who is online

Users browsing this forum: No registered users and 1 guest


You cannot post new topics in this forum
You cannot reply to topics in this forum
You cannot edit your posts in this forum
You cannot delete your posts in this forum
You cannot post attachments in this forum

Search for:
Яндекс.Метрика
Powered by phpBB © 2000, 2002, 2005, 2007 phpBB Group