\m/ 80's metal \m/

Информационно-аналитический форум "80 см пыли" (In Search We Trust) "У нас никто никуда не спешит"
Me For You - http://me-4u.com
It is currently 10 Dec 2018

All times are UTC + 3 hours

Spoiler
Chat - temporary registration for foreign users (please leave your application here)







Post new topic Reply to topic  [ 7 posts ] 
Author Message
 
PostPosted: 25 Dec 2013 
Генеральный thrasher
User avatar
Joined: 03 Oct 2008
Posts: 3530
Lоcаtion: Ханты-Мансийский АО
Age: 43
Name: Сергей
Image

Year:1992
Style:Avantgarde Thrash Metall
Country:U.K.
Audio:Flac+Cue+Log+Scans
Size:241Mb
Source:my CD
Label:Roadracer Records

Tracklist:
01. Outer Space 03:56
02. Blue Law 04:40
03. Reproduction 04:16
04. Face 04:29
05. A Tell-Tale Trail Of Murder 05:12
06. Fisher Of Men 06:10
07. Rebirth 05:08

"Cue"
REM GENRE Metal
REM DATE 1992
REM DISCID 5107FC07
REM COMMENT "ExactAudioCopy v0.99pb5"
PERFORMER "Innerstate"
TITLE "A Tell-Tale Trail"
FILE "Innerstate - A Tell-Tale Trail.flac" WAVE
TRACK 01 AUDIO
TITLE "Outer space"
PERFORMER "Innerstate"
INDEX 01 00:00:00
TRACK 02 AUDIO
TITLE "Blue law"
PERFORMER "Innerstate"
INDEX 00 03:55:34
INDEX 01 03:55:55
TRACK 03 AUDIO
TITLE "Reproduction"
PERFORMER "Innerstate"
INDEX 00 08:38:01
INDEX 01 08:38:02
TRACK 04 AUDIO
TITLE "Face"
PERFORMER "Innerstate"
INDEX 00 12:56:44
INDEX 01 12:56:45
TRACK 05 AUDIO
TITLE "A tell-tale trail of murder"
PERFORMER "Innerstate"
INDEX 00 17:24:71
INDEX 01 17:24:72
TRACK 06 AUDIO
TITLE "Fisher of men"
PERFORMER "Innerstate"
INDEX 00 22:42:36
INDEX 01 22:42:37
TRACK 07 AUDIO
TITLE "Rebirth"
PERFORMER "Innerstate"
INDEX 00 28:59:41
INDEX 01 28:59:42

"Log"
Exact Audio Copy V0.99 prebeta 5 from 4. May 2009

Отчёт EAC об извлечении, выполненном 20. декабря 2013, 13:48

Innerstate / A Tell-Tale Trail

Дисковод: MATSHITADVD-RAM UJ8A0AS Adapter: 0 ID: 1

Режим чтения : Достоверность
Использование точного потока : Да
Отключение кэша аудио : Да
Использование указателей C2 : Нет

Коррекция смещения при чтении : 102
Способность читать области Lead-in и Lead-out : Нет
Заполнение пропущенных сэмплов тишиной : Да
Удаление блоков с тишиной в начале и конце : Нет
При вычислениях CRC использовались нулевые сэмплы : Да
Интерфейс : Встроенный Win32-интерфейс для Win NT/2000

Выходной формат : Пользовательский кодировщик
Выбранный битрейт : 1024 kBit/s
Качество : Высокий
Добавление ID3-тэга : Нет
Утилита сжатия : C:\Program Files\Exact Audio Copy\FLAC\FLAC.EXE
Дополнительные параметры : -6 -V -T "ARTIST=%a" -T "TITLE=%t" -T "ALBUM=%g" -T "DATE=%y" -T "TRACKNUMBER=%n" -T "GENRE=%m" -T "COMMENT=%e" %s -o %d


TOC извлечённого CD

Трек | Старт | Длительность | Начальный сектор | Конечный сектор
---------------------------------------------------------------------
1 | 0:00.00 | 3:55.55 | 0 | 17679
2 | 3:55.55 | 4:42.22 | 17680 | 38851
3 | 8:38.02 | 4:18.43 | 38852 | 58244
4 | 12:56.45 | 4:28.27 | 58245 | 78371
5 | 17:24.72 | 5:17.40 | 78372 | 102186
6 | 22:42.37 | 6:17.05 | 102187 | 130466
7 | 28:59.42 | 5:04.65 | 130467 | 153331


Характеристики диапазона извлечения и сообщения об ошибках

Выбранный диапазон

Имя файла C:\Users\эксперт\Music\Innerstate - A Tell-Tale Trail.wav

Пиковый уровень 80.1 %
Качество диапазона 100.0 %
CRC копии E8ECCA91
Копирование... OK

Ошибок не произошло


AccurateRip: сводка

Трек 1 точность не определена (достоверность 1) [00381270], AccurateRip вернул [5566FE04]
Трек 2 точность не определена (достоверность 1) [A37E4D6F], AccurateRip вернул [8542E51F]
Трек 3 точность не определена (достоверность 1) [F197D2CA], AccurateRip вернул [5502CB53]
Трек 4 точность не определена (достоверность 1) [F56A4751], AccurateRip вернул [6652ADC5]
Трек 5 точность не определена (достоверность 1) [C7D4A465], AccurateRip вернул [F8F120C7]
Трек 6 точность не определена (достоверность 1) [B5B9E479], AccurateRip вернул [CA1EED15]
Трек 7 точность не определена (достоверность 1) [37BA299C], AccurateRip вернул [671CD751]

Ни один трек не прошёл проверки на точность
В вашей базе может быть иной вариант штамповки диска

Конец отчёта


A Tell-Tale Trail


Top
 Profile  
 
 
PostPosted: 25 Dec 2013 
Прокъмитолист
User avatar
Joined: 12 Aug 2007
Posts: 6512
Lоcаtion: Санктъ-Петербуркъ
Age: 51
Name: Олекъ
Серёг, спасибо! :thanx:

_________________
прокъметол - это музыко, от которово есть прок (ы)


Top
 Profile  
 
 
PostPosted: 25 Dec 2013 
Дежурный по КУПу
User avatar
Joined: 17 Aug 2007
Posts: 5870
Age: 50
Name: Ге
:thanx:

_________________
http://jp-mania.ru/
http://jp-tourdates.ucoz.ru/


Top
 Profile  
 
 
PostPosted: 25 Dec 2013 
Анатолий
User avatar
Joined: 18 Oct 2008
Posts: 3243
Lоcаtion: Армавир
Age: 41
Name: Анатолий
Ого-го!!! Вот это сюрприз!!! СПАСИБО!!! :thanx: :true:

Этого альбома фактически не слышал, так, отдельные композиции.


Top
 Profile E-mail  
 
 
PostPosted: 25 Dec 2013 
Хиппей (support team)
User avatar
Joined: 30 Jul 2007
Posts: 108779
Lоcаtion: Киев (Kyiv, UA)
Age: 45
Name: Andrey
:thanx:

mirror: Narod l M-Cloud

_________________


Top
 Profile E-mail  
 
 
PostPosted: 04 Jan 2014 
Хиппей (support team)
User avatar
Joined: 30 Jul 2007
Posts: 108779
Lоcаtion: Киев (Kyiv, UA)
Age: 45
Name: Andrey
Да уж, как то этот альбом очень уж моден был на то время =) Да так, что теперь не то что ржачно слушается, а с некоторой ухмылкой :crazy:

Трэш здесь только на последнем трэке представлен. Остальное типа альтернативный метол и всё такое модное.
Короче, не все группы в 91-м году поняли, что Anthrax прикалывались :pardon:

_________________


Top
 Profile E-mail  
 
 
PostPosted: 06 Jan 2014 
Alive Again
User avatar
Joined: 17 Dec 2008
Posts: 4744
Lоcаtion: Курск Воронеж Оскол
Age: 44
Name: Дмитрий
:thanx:


Top
 Profile E-mail  
 
Display posts from previous:  Sort by  
Post new topic Reply to topic  [ 7 posts ] 

All times are UTC + 3 hours


Who is online

Users browsing this forum: No registered users and 2 guests


You cannot post new topics in this forum
You cannot reply to topics in this forum
You cannot edit your posts in this forum
You cannot delete your posts in this forum
You cannot post attachments in this forum

Search for:
Яндекс.Метрика
Powered by phpBB © 2000, 2002, 2005, 2007 phpBB Group