\m/ 80's metal \m/

Информационно-аналитический форум "80 см пыли" (In Search We Trust) "У нас никто никуда не спешит"
Me For You - http://me-4u.com
It is currently 15 Dec 2018

All times are UTC + 3 hours

Spoiler
Chat - temporary registration for foreign users (please leave your application here)







Post new topic Reply to topic  [ 10 posts ] 
Author Message
 
PostPosted: 25 Dec 2013 
Генеральный thrasher
User avatar
Joined: 03 Oct 2008
Posts: 3536
Lоcаtion: Ханты-Мансийский АО
Age: 43
Name: Сергей
Image

Year:1993
Style:Avantgarde Thrash Metal
Country:U.K.
Audio:Flac+Cue+Log+Scans
Size:318Mb
Source:my CD
Label:Roadrunner Records

Line-Up:
Steve Argyle - vocals
Joe Ivory - guitars & vocals
Jon Paul Sherlock - bass
David Brown - drums & vocals

Tracklist:
01. Organism 06:04
02. Birthrights 04:23
03. Dead White European Males 03:42
04. Dark Days 04:22
05. There's More To Lifes Than Bitches And Money 04:24
06. Sing 04:01
07. Guns 05:00
08. Giro 04:57
09. Delve Deep 04:48
10. Don't Preach (I Don't Want That) 05:57

"Cue"
REM GENRE Metal
REM DATE 1993
REM DISCID 790B460A
REM COMMENT "ExactAudioCopy v0.99pb5"
PERFORMER "Innerstate"
TITLE "Protest To The Signs"
FILE "Innerstate - Protest To The Signs.flac" WAVE
TRACK 01 AUDIO
TITLE "Organism"
PERFORMER "Innerstate"
INDEX 01 00:00:00
TRACK 02 AUDIO
TITLE "Birthrights"
PERFORMER "Innerstate"
INDEX 00 06:07:17
INDEX 01 06:09:02
TRACK 03 AUDIO
TITLE "Dead White European Males"
PERFORMER "Innerstate"
INDEX 01 10:34:45
TRACK 04 AUDIO
TITLE "Dark Days"
PERFORMER "Innerstate"
INDEX 01 14:19:70
TRACK 05 AUDIO
TITLE "There's More To Life Than Bitches & Money"
PERFORMER "Innerstate"
INDEX 01 18:44:00
TRACK 06 AUDIO
TITLE "Sing"
PERFORMER "Innerstate"
INDEX 01 23:09:42
TRACK 07 AUDIO
TITLE "Guns"
PERFORMER "Innerstate"
INDEX 01 27:13:12
TRACK 08 AUDIO
TITLE "Giro"
PERFORMER "Innerstate"
INDEX 01 32:18:17
TRACK 09 AUDIO
TITLE "Delve Deep"
PERFORMER "Innerstate"
INDEX 01 37:17:50
TRACK 10 AUDIO
TITLE "Don't Preach (I Don't Want That)"
PERFORMER "Innerstate"
INDEX 01 41:58:02

"Log"
Exact Audio Copy V0.99 prebeta 5 from 4. May 2009

Отчёт EAC об извлечении, выполненном 17. декабря 2013, 19:04

Innerstate / Protest To The Signs

Дисковод: MATSHITADVD-RAM UJ8A0AS Adapter: 0 ID: 1

Режим чтения : Достоверность
Использование точного потока : Да
Отключение кэша аудио : Да
Использование указателей C2 : Нет

Коррекция смещения при чтении : 102
Способность читать области Lead-in и Lead-out : Нет
Заполнение пропущенных сэмплов тишиной : Да
Удаление блоков с тишиной в начале и конце : Нет
При вычислениях CRC использовались нулевые сэмплы : Да
Интерфейс : Встроенный Win32-интерфейс для Win NT/2000

Выходной формат : Пользовательский кодировщик
Выбранный битрейт : 1024 kBit/s
Качество : Высокий
Добавление ID3-тэга : Нет
Утилита сжатия : C:\Program Files\Exact Audio Copy\FLAC\FLAC.EXE
Дополнительные параметры : -6 -V -T "ARTIST=%a" -T "TITLE=%t" -T "ALBUM=%g" -T "DATE=%y" -T "TRACKNUMBER=%n" -T "GENRE=%m" -T "COMMENT=%e" %s -o %d


TOC извлечённого CD

Трек | Старт | Длительность | Начальный сектор | Конечный сектор
---------------------------------------------------------------------
1 | 0:00.00 | 6:09.02 | 0 | 27676
2 | 6:09.02 | 4:25.43 | 27677 | 47594
3 | 10:34.45 | 3:45.25 | 47595 | 64494
4 | 14:19.70 | 4:24.05 | 64495 | 84299
5 | 18:44.00 | 4:25.42 | 84300 | 104216
6 | 23:09.42 | 4:03.45 | 104217 | 122486
7 | 27:13.12 | 5:05.05 | 122487 | 145366
8 | 32:18.17 | 4:59.33 | 145367 | 167824
9 | 37:17.50 | 4:40.27 | 167825 | 188851
10 | 41:58.02 | 6:08.55 | 188852 | 216506


Характеристики диапазона извлечения и сообщения об ошибках

Выбранный диапазон

Имя файла C:\Users\эксперт\Music\Innerstate - Protest To The Signs.wav

Пиковый уровень 90.1 %
Качество диапазона 100.0 %
CRC копии 6EFA44DB
Копирование... OK

Ошибок не произошло


AccurateRip: сводка

Трек 1 точность не определена (достоверность 2) [215C6938], AccurateRip вернул [15A64B48]
Трек 2 точность не определена (достоверность 2) [B8B4497D], AccurateRip вернул [B292EA2E]
Трек 3 точность не определена (достоверность 2) [3C828D10], AccurateRip вернул [764008E4]
Трек 4 точность не определена (достоверность 2) [1C81254F], AccurateRip вернул [D2EA3667]
Трек 5 точность не определена (достоверность 2) [C3E2B062], AccurateRip вернул [9B98DF80]
Трек 6 точность не определена (достоверность 2) [FCED4109], AccurateRip вернул [D3E4A21C]
Трек 7 точность не определена (достоверность 2) [B190FD2A], AccurateRip вернул [38646DA7]
Трек 8 точность не определена (достоверность 2) [BF1FE969], AccurateRip вернул [5B94F085]
Трек 9 точность не определена (достоверность 2) [E26CB17D], AccurateRip вернул [0A6D9073]
Трек 10 точность не определена (достоверность 2) [747279F8], AccurateRip вернул [B2B95BAB]

Ни один трек не прошёл проверки на точность
В вашей базе может быть иной вариант штамповки диска

Конец отчёта


Protest To The Signs


Top
 Profile  
 
 
PostPosted: 25 Dec 2013 
Прокъмитолист
User avatar
Joined: 12 Aug 2007
Posts: 6514
Lоcаtion: Санктъ-Петербуркъ
Age: 51
Name: Олекъ
и еще раз спасибо! :true:

_________________
прокъметол - это музыко, от которово есть прок (ы)


Top
 Profile  
 
 
PostPosted: 25 Dec 2013 
Генеральный thrasher
User avatar
Joined: 03 Oct 2008
Posts: 3536
Lоcаtion: Ханты-Мансийский АО
Age: 43
Name: Сергей
Забавная группёшка! :shok: Столько намешано!


Top
 Profile  
 
 
PostPosted: 25 Dec 2013 
Дежурный по КУПу
User avatar
Joined: 17 Aug 2007
Posts: 5870
Age: 50
Name: Ге
:thanx:

_________________
http://jp-mania.ru/
http://jp-tourdates.ucoz.ru/


Top
 Profile  
 
 
PostPosted: 25 Dec 2013 
Анатолий
User avatar
Joined: 18 Oct 2008
Posts: 3246
Lоcаtion: Армавир
Age: 41
Name: Анатолий
thorbeorn

Спасибо огромное!!! :thanx: :true:

В mp3 есть, а вот лося не было до сих пор.


Top
 Profile E-mail  
 
 
PostPosted: 25 Dec 2013 
Генеральный thrasher
User avatar
Joined: 03 Oct 2008
Posts: 3536
Lоcаtion: Ханты-Мансийский АО
Age: 43
Name: Сергей
thorbeorn

Спасибо огромное!!! :thanx: :true:

В mp3 есть, а вот лося не было до сих пор.


Толь,я же помню,что в своё время ты искал их.Вот и выложил.


Top
 Profile  
 
 
PostPosted: 25 Dec 2013 
Анатолий
User avatar
Joined: 18 Oct 2008
Posts: 3246
Lоcаtion: Армавир
Age: 41
Name: Анатолий
thorbeorn wrote:
Толь,я же помню,что в своё время ты искал их.Вот и выложил.


Это был мой первый запрос на этом Форуме. Время летит...

Спасибо ещё раз, Серёж, очень приятно что помнишь.


Top
 Profile E-mail  
 
 
PostPosted: 25 Dec 2013 
Хиппей (support team)
User avatar
Joined: 30 Jul 2007
Posts: 108909
Lоcаtion: Киев (Kyiv, UA)
Age: 45
Name: Andrey
:thanx:

mirror: Narod l M-Cloud

Еще бы кто снял рекса с того запроса =)

_________________


Top
 Profile E-mail  
 
 
PostPosted: 25 Dec 2013 
Генеральный thrasher
User avatar
Joined: 03 Oct 2008
Posts: 3536
Lоcаtion: Ханты-Мансийский АО
Age: 43
Name: Сергей
Да.Время не стоит на месте.И многое из желаемого мы получаем гораздо позже,чем хотелось бы...


Top
 Profile  
 
 
PostPosted: 02 Jan 2014 
Хиппей (support team)
User avatar
Joined: 30 Jul 2007
Posts: 108909
Lоcаtion: Киев (Kyiv, UA)
Age: 45
Name: Andrey
thorbeorn wrote:
Avantgarde Thrash Metal

Ага, что-то такое вот и есть. И еще немного грува, кроссовера с фанком и хэви :pardon:
Но альбом скучноват и совершенно без скоростей.
А, и вокал писклявый и читающий, как у прогрессивщиков. Но слушать можно =)

_________________


Top
 Profile E-mail  
 
Display posts from previous:  Sort by  
Post new topic Reply to topic  [ 10 posts ] 

All times are UTC + 3 hours


Who is online

Users browsing this forum: No registered users and 1 guest


You cannot post new topics in this forum
You cannot reply to topics in this forum
You cannot edit your posts in this forum
You cannot delete your posts in this forum
You cannot post attachments in this forum

Search for:
Яндекс.Метрика
Powered by phpBB © 2000, 2002, 2005, 2007 phpBB Group