\m/ 80's metal \m/

Информационно-аналитический форум "80 см пыли" (In Search We Trust) "У нас никто никуда не спешит"
Me For You - http://me-4u.com
It is currently 12 Dec 2018

All times are UTC + 3 hours

Spoiler
Chat - temporary registration for foreign users (please leave your application here)







Post new topic Reply to topic  [ 8 posts ] 
Author Message
 
PostPosted: 12 Jun 2013 
Работнечег
User avatar
Joined: 28 Aug 2007
Posts: 5599
Lоcаtion: г. Москва
Age: 29
Name: Дима
Image

Band: In Solitude
Album: Eternal
Label: Independent Records
Genre: Atmospheric Heavy Metal
Country: Portugal
Format: Flac + Log + Cue + Covers
Size: 376 Mb

Line-Up:
Sergio Martins - Vocals (Cycles)
Tiago Sousa - Guitars
Eduardo Borges - Bass
Augusto Peixoto (Cycles, Dove (Prt), Paradigma (Prt), Headstone (Prt)) - Drums
Lisa Amaral - Keyboards


Tracklist:
1. Heart of Thorns 05:47
2. Winds of No Return 04:09
3. Ethereal Dream 07:20
4. Horizons Loss 06:56
5. The Hurt Seasons 03:58
6. Cry Without Tears 01:40
7. A Dream Within Me 03:44
8. In Purple Skies 06:04
9. My Daisy 03:52
10. Children of the Dark 04:19

LOG
Exact Audio Copy V0.99 prebeta 5 from 4. May 2009

EAC extraction logfile from 8. June 2013, 18:10

In Solitude / Eternal

Used drive : PIONEER DVD-RW DVR-116D Adapter: 0 ID: 0

Read mode : Secure
Utilize accurate stream : Yes
Defeat audio cache : Yes
Make use of C2 pointers : No

Read offset correction : 96
Overread into Lead-In and Lead-Out : No
Fill up missing offset samples with silence : Yes
Delete leading and trailing silent blocks : No
Null samples used in CRC calculations : Yes
Used interface : Native Win32 interface for Win NT & 2000

Used output format : User Defined Encoder
Selected bitrate : 32 kBit/s
Quality : High
Add ID3 tag : No
Command line compressor : C:\Program Files\Exact Audio Copy\Flac\flac.exe
Additional command line options : -6 -V %s


TOC of the extracted CD

Track | Start | Length | Start sector | End sector
---------------------------------------------------------
1 | 0:00.00 | 5:47.17 | 0 | 26041
2 | 5:47.17 | 4:09.68 | 26042 | 44784
3 | 9:57.10 | 7:20.19 | 44785 | 77803
4 | 17:17.29 | 6:56.45 | 77804 | 109048
5 | 24:13.74 | 3:58.19 | 109049 | 126917
6 | 28:12.18 | 1:40.14 | 126918 | 134431
7 | 29:52.32 | 3:44.17 | 134432 | 151248
8 | 33:36.49 | 6:04.04 | 151249 | 178552
9 | 39:40.53 | 3:52.18 | 178553 | 195970
10 | 43:32.71 | 4:19.22 | 195971 | 215417


Range status and errors

Selected range

Filename D:\Музыка\Lossless\In Solitude - Eternal (1998)\In Solitude - Eternal.wav

Peak level 99.9 %
Range quality 100.0 %
Copy CRC 2A1FFB42
Copy OK

No errors occurred


AccurateRip summary

Track 1 accurately ripped (confidence 1) [65DB39D8]
Track 2 accurately ripped (confidence 1) [8268E370]
Track 3 accurately ripped (confidence 1) [48B44303]
Track 4 accurately ripped (confidence 1) [FAE92440]
Track 5 accurately ripped (confidence 1) [DEC2E675]
Track 6 accurately ripped (confidence 1) [BF44E16C]
Track 7 accurately ripped (confidence 1) [18ACC0C6]
Track 8 accurately ripped (confidence 1) [9EAE2649]
Track 9 accurately ripped (confidence 1) [912CC784]
Track 10 accurately ripped (confidence 1) [9A22C153]

All tracks accurately ripped

End of status report

CUE
REM GENRE "Power Metal"
REM DATE 1998
REM DISCID 950B380A
REM COMMENT "ExactAudioCopy v0.99pb5"
PERFORMER "In Solitude"
TITLE "Eternal"
FILE "In Solitude - Eternal.flac" WAVE
TRACK 01 AUDIO
TITLE "Heart Of Thorns"
PERFORMER "In Solitude"
FLAGS DCP
INDEX 01 00:00:00
TRACK 02 AUDIO
TITLE "Winds Of No Return"
PERFORMER "In Solitude"
FLAGS DCP
INDEX 00 05:45:17
INDEX 01 05:47:17
TRACK 03 AUDIO
TITLE "Ethereal Dream"
PERFORMER "In Solitude"
FLAGS DCP
INDEX 00 09:55:10
INDEX 01 09:57:10
TRACK 04 AUDIO
TITLE "Horizons Loss"
PERFORMER "In Solitude"
FLAGS DCP
INDEX 01 17:17:29
TRACK 05 AUDIO
TITLE "The Hurt Seasons"
PERFORMER "In Solitude"
FLAGS DCP
INDEX 01 24:13:74
TRACK 06 AUDIO
TITLE "Cry Without Tears"
PERFORMER "In Solitude"
FLAGS DCP
INDEX 00 28:10:18
INDEX 01 28:12:18
TRACK 07 AUDIO
TITLE "A Dream Within Me"
PERFORMER "In Solitude"
FLAGS DCP
INDEX 01 29:52:32
TRACK 08 AUDIO
TITLE "In Purple Skies"
PERFORMER "In Solitude"
FLAGS DCP
INDEX 00 33:35:49
INDEX 01 33:36:49
TRACK 09 AUDIO
TITLE "My Daisy"
PERFORMER "In Solitude"
FLAGS DCP
INDEX 01 39:40:53
TRACK 10 AUDIO
TITLE "Children Of The Dark"
PERFORMER "In Solitude"
FLAGS DCP
INDEX 00 43:30:71
INDEX 01 43:32:71


Rusfolder.ru

phpBB [youtube]

phpBB [youtube]

phpBB [youtube]


Дебютный альбом и по мне так самый удачный) Андрюхе не понравится скорее всего, также как и Егору, скоростных песен тут вообщем нет. Остальные 2 альбома на форуме также имеются)


Top
 Profile E-mail  
 
 
PostPosted: 13 Jun 2013 
Хиппей (support team)
User avatar
Joined: 30 Jul 2007
Posts: 108825
Lоcаtion: Киев (Kyiv, UA)
Age: 45
Name: Andrey
Дим, спасибо :thanx:

Как не понравится, если я их работы с момента выхода слушал и торчал :true:

Хотя да, вкусы то меняются, как и время... Тем интереснее будет сравнить те ощущения с нынешними :dance:

mirror: F-Bit l Narod

_________________


Top
 Profile E-mail  
 
 
PostPosted: 13 Jun 2013 
Работнечег
User avatar
Joined: 28 Aug 2007
Posts: 5599
Lоcаtion: г. Москва
Age: 29
Name: Дима
ты случаем со шведами не путаешь? ;)


Top
 Profile E-mail  
 
 
PostPosted: 14 Jun 2013 
Пионэръ
User avatar
Joined: 02 Jul 2010
Posts: 45
Lоcаtion: Сочи
Age: 46
Name: Борис
:true: :thanx:


Top
 Profile E-mail  
 
 
PostPosted: 14 Jun 2013 
Хиппей (support team)
User avatar
Joined: 30 Jul 2007
Posts: 108825
Lоcаtion: Киев (Kyiv, UA)
Age: 45
Name: Andrey
ты случаем со шведами не путаешь? ;)

Никак нет :dance:
Именно этот альбом был мной куплен в магазине "Core" на бывшей Заньковецкой. В тот же день Алексей мне закатал новый Moonspell и до сих пор я обе группы причислял к думу, а не к... чой-то там указано выше - атмосферик метол? :scratch:
Правда немного прифигефшим был, когда в первый раз всунул кассету в плаер и начал слушать. От неожиданности и случайно выпитого лишку пива (покупал на троих) проехался не на том номере троллейбуса (вместо 8-ки сел на 5-ку) пару кругов до Нивок и обратно. Зайцем, естественно :zayaz:
Альбом этот я знаю наизусть, хоть и не понимал тогда и сейчас лирику из-за незнания языка английского.
В общем, спасибо за некую ностальгию еще раз :true: :thanx:

_________________


Top
 Profile E-mail  
 
 
PostPosted: 16 Jun 2013 
Работнечег
User avatar
Joined: 28 Aug 2007
Posts: 5599
Lоcаtion: г. Москва
Age: 29
Name: Дима
ты случаем со шведами не путаешь? ;)

Никак нет :dance:
Именно этот альбом был мной куплен в магазине "Core" на бывшей Заньковецкой. В тот же день Алексей мне закатал новый Moonspell и до сих пор я обе группы причислял к думу, а не к... чой-то там указано выше - атмосферик метол? :scratch:

Ого, не думал, что этот альбом можно было у нас как-то купить, группа сильно известной-то была токо если на родине) ну дума тут точно нет, элементы готики мож да, это как максимум)


Top
 Profile E-mail  
 
 
PostPosted: 16 Jun 2013 
Alive Again
User avatar
Joined: 17 Dec 2008
Posts: 4744
Lоcаtion: Курск Воронеж Оскол
Age: 44
Name: Дмитрий
интересно, я таких не знал, :thanx:


Top
 Profile E-mail  
 
 
PostPosted: 16 Jun 2013 
Хиппей (support team)
User avatar
Joined: 30 Jul 2007
Posts: 108825
Lоcаtion: Киев (Kyiv, UA)
Age: 45
Name: Andrey
church wrote:
ну дума тут точно нет, элементы готики мож да, это как максимум)

Если добавить гроула немного, то дум получится. Но это уже пойдут споры как с Melodic Death Metal у нас вышло :yyy:

_________________


Top
 Profile E-mail  
 
Display posts from previous:  Sort by  
Post new topic Reply to topic  [ 8 posts ] 

All times are UTC + 3 hours


Who is online

Users browsing this forum: No registered users and 1 guest


You cannot post new topics in this forum
You cannot reply to topics in this forum
You cannot edit your posts in this forum
You cannot delete your posts in this forum
You cannot post attachments in this forum

Search for:
Яндекс.Метрика
Powered by phpBB © 2000, 2002, 2005, 2007 phpBB Group