\m/ 80's metal \m/

Информационно-аналитический форум "80 см пыли" (In Search We Trust) "У нас никто никуда не спешит"
Me For You - http://me-4u.com
It is currently 19 Dec 2018

All times are UTC + 3 hours

Spoiler
Chat - temporary registration for foreign users (please leave your application here)







Post new topic Reply to topic  [ 6 posts ] 
Author Message
 
PostPosted: 24 Jul 2012 
Труъ
User avatar
Joined: 05 Oct 2008
Posts: 194
Lоcаtion: Saint Petersburg
Age: 45
Name: Jesse
Image

INFINITY OVERTURE - Kingdom Of Utopia

Year: 2009
Style: Symphonic Power Metal
Country: Denmark
Label: Lion Music (LMC 273)
Format: EAC-FLAC+CUE+LOG+5% recovery
Size: 359 Mb


Image

TRACK LIST:

1. Millenia
2. The Great Believers
3. Warrior King
4. Wonderland
5. Temples Of Doom
6. Kingdom Of Utopia
7. Queen Of Hearts
8. Oceans Of Time
9. Sacred Fire
10. War Cry


Image

Album Lineup:
Ian Parry - Male Lead Vocals (ex-Vengeance, Misha Calvin, Ayreon, Elegy, Consortium Project)
Lene Petersen - Female Lead Vocals
Anne Karine Prip - Female Lead Vocals
Niels Vejlyt - Guitar (My Empty Room)
Kyle Honea - Bass (Francesco Fareri, KF Project)
Mads Damgaard - Bass
Mads Volf - Drums (Manticora, Human Factor)


Live band:
Ian Parry - Male Lead Vocals
Lene Petersen - Female Vocals
Niels Vejlyt - Guitar
Mads Damgaard - Keys
Jakob Vand - Drums (My Empty Room, Niels Vejlit)
Simon Westergaard - Bass


"log"
Exact Audio Copy V0.99 prebeta 4 from 23. January 2008

Отчёт EAC об извлечении, выполненном 6. июля 2010, 2:46

Infinity Overture / Kingdom Of Utopia

Дисковод: ASUS CRW-5224A Adapter: 3 ID: 0

Режим чтения : Достоверность
Использование точного потока : Да
Отключение кэша аудио : Да
Использование указателей C2 : Нет

Коррекция смещения при чтении : 6
Способность читать области Lead-in и Lead-out : Нет
Заполнение пропущенных сэмплов тишиной : Да
Удаление блоков с тишиной в начале и конце : Нет
При вычислениях CRC использовались нулевые сэмплы : Да
Интерфейс : Установленный внешний ASPI-интерфейс

Выходной формат : Внутренние WAV-операции
Формат сэмплов : 44.100 Гц; 16 бит; стерео

TOC извлечённого CD

Трек | Старт | Длительность | Начальный сектор | Конечный сектор
---------------------------------------------------------------------
1 | 0:00.00 | 6:11.26 | 0 | 27850
2 | 6:11.26 | 4:54.52 | 27851 | 49952
3 | 11:06.03 | 5:15.32 | 49953 | 73609
4 | 16:21.35 | 4:35.71 | 73610 | 94305
5 | 20:57.31 | 3:40.66 | 94306 | 110871
6 | 24:38.22 | 4:59.73 | 110872 | 133369
7 | 29:38.20 | 5:08.46 | 133370 | 156515
8 | 34:46.66 | 5:01.44 | 156516 | 179134
9 | 39:48.35 | 4:34.25 | 179135 | 199709
10 | 44:22.60 | 4:26.23 | 199710 | 219682

Характеристики диапазона извлечения и сообщения об ошибках

Выбранный диапазон

Имя файла H:CdInfinity Overture - Kingdom Of Utopia by Omarao.wav

Пиковый уровень 98.8 %
Качество диапазона 100.0 %
CRC копии 346ED1C4
Копирование... OK

Ошибок не произошло

Конец отчёта


NAROD
password: jesse


Top
 Profile  
 
 
PostPosted: 24 Jul 2012 
Хиппей (support team)
User avatar
Joined: 30 Jul 2007
Posts: 109011
Lоcаtion: Киев (Kyiv, UA)
Age: 45
Name: Andrey
:thanx:

Вадим, вопрос не очень скромный - много у тебя еще в закромах рипов? :oops:

_________________


Top
 Profile E-mail  
 
 
PostPosted: 24 Jul 2012 
Труъ
User avatar
Joined: 05 Oct 2008
Posts: 194
Lоcаtion: Saint Petersburg
Age: 45
Name: Jesse
почти сотня


Top
 Profile  
 
 
PostPosted: 26 Jul 2012 
Товарищ одмин, а чой-то у нас всякое неформатное говнецо (типа этого) в бухте делает?


Top
  
 
 
PostPosted: 26 Jul 2012 
Труъ
User avatar
Joined: 05 Oct 2008
Posts: 194
Lоcаtion: Saint Petersburg
Age: 45
Name: Jesse
Вася_металлист_2012 wrote:
Товарищ одмин, а чой-то у нас всякое неформатное говнецо (типа этого) в бухте делает?

Товарищ Воин походу хочет разнести срач по всему форуму :crazy: Ну фперет!


Top
 Profile  
 
 
PostPosted: 27 Jul 2012 
Хиппей (support team)
User avatar
Joined: 30 Jul 2007
Posts: 109011
Lоcаtion: Киев (Kyiv, UA)
Age: 45
Name: Andrey
Вася_металлист_2012 wrote:
Товарищ одмин, а чой-то у нас всякое неформатное говнецо (типа этого) в бухте делает?

О...
Драсти, Василий. Бухта, она как тот корабель - стилевые рамки не нарушены, плавает себе, как хотит в фарватере. А вот за слово "говнецо" и вопросы в виде умничания и разведения распрей - второе устное предупреждение и явно последнее, третьим дальше официальное ожидается.

зы. Если что, у меня непрочитанными остались около 70 сообщений за период с 23 по сегодняшнее июля, так что делаем поправку на это. Не всегда успеваю уследить за всеми сообщениями :pardon:

Вась тебе точно так нужен второй бан, а? :vic:

_________________


Top
 Profile E-mail  
 
Display posts from previous:  Sort by  
Post new topic Reply to topic  [ 6 posts ] 

All times are UTC + 3 hours


Who is online

Users browsing this forum: No registered users and 2 guests


You cannot post new topics in this forum
You cannot reply to topics in this forum
You cannot edit your posts in this forum
You cannot delete your posts in this forum
You cannot post attachments in this forum

Search for:
Яндекс.Метрика
Powered by phpBB © 2000, 2002, 2005, 2007 phpBB Group