\m/ 80's metal \m/

Информационно-аналитический форум "80 см пыли" (In Search We Trust) "У нас никто никуда не спешит"
Me For You - http://me-4u.com
It is currently 16 Dec 2018

All times are UTC + 3 hours

Spoiler
Chat - temporary registration for foreign users (please leave your application here)







Post new topic Reply to topic  [ 2 posts ] 
Author Message
 
PostPosted: 11 May 2012 
Power Metal Maniac
User avatar
Joined: 09 Aug 2008
Posts: 6434
Lоcаtion: Москва
Age: 40
Name: Егор
Inner Visions - Control the Past (2004)

Image

Label/Catalog Number: Avalon (Japan), MICP-10465
Genre: Melodic Power Metal
Country: France
Contents: APE+LOG+CUE
Size: 377 Mb


Tracklist:
1 Intro - Asleep 1:58
2 Big Brother 5:12
3 Behind the Grid 4:57
4 Eliminate 4:48
5 In the Name Of... 5:43
6 Control the Past 5:03
7 Maze of Nowhere 3:35
8 Wake Up with a Smile 5:27
9 The Prophecy 4:46
10 When We'll Be Kings 5:55
Japan Bonustrack:
11 Insecure 8:57

Spectrum:
Image

Narod

Единственный альбом французской группы, японское издание с бонусом.
Рипал с CD-R, с Accurate Rip не совпадает. Так что качайте на свой страх и риск.

_________________
Long Live Metal!


Top
 Profile  
 
 
PostPosted: 11 May 2012 
Хиппей (support team)
User avatar
Joined: 30 Jul 2007
Posts: 108945
Lоcаtion: Киев (Kyiv, UA)
Age: 45
Name: Andrey
Боюсь, но качаю :shok: :thanx:

mirror: MultiUp l Narod


log
Exact Audio Copy V1.0 beta 3 from 29. August 2011

Отчёт EAC об извлечении, выполненном 11. мая 2012, 12:34

Inner Visions / Control The Past

Дисковод: PLEXTOR BD-R PX-LB950SA Adapter: 3 ID: 0

Режим чтения : Достоверность
Использование точного потока : Да
Отключение кэша аудио : Да
Использование указателей C2 : Нет

Коррекция смещения при чтении : 6
Способность читать области Lead-in и Lead-out : Нет
Заполнение пропущенных сэмплов тишиной : Да
Удаление блоков с тишиной в начале и конце : Нет
При вычислениях CRC использовались нулевые сэмплы : Да
Интерфейс : Встроенный Win32-интерфейс для Win NT/2000

Выходной формат : Внутренние WAV-операции
Формат сэмплов : 44.100 Гц; 16 бит; стерео


TOC извлечённого CD

Трек | Старт | Длительность | Начальный сектор | Конечный сектор
---------------------------------------------------------------------
1 | 0:00.00 | 1:58.16 | 0 | 8865
2 | 1:58.16 | 5:12.21 | 8866 | 32286
3 | 7:10.37 | 4:57.24 | 32287 | 54585
4 | 12:07.61 | 4:47.38 | 54586 | 76148
5 | 16:55.24 | 5:42.72 | 76149 | 101870
6 | 22:38.21 | 5:03.21 | 101871 | 124616
7 | 27:41.42 | 3:34.61 | 124617 | 140727
8 | 31:16.28 | 5:27.37 | 140728 | 165289
9 | 36:43.65 | 4:46.03 | 165290 | 186742
10 | 41:29.68 | 5:54.63 | 186743 | 213355
11 | 47:24.56 | 8:57.31 | 213356 | 253661


Характеристики диапазона извлечения и сообщения об ошибках

Выбранный диапазон

Имя файла F:\EBACKUP\torrents\Inner Visions 2004 - Conrol the Past [Japan] [APE]\Inner Visions - Control The Past.wav

Пиковый уровень 99.9 %
Скорость извлечения 9.2 X
Качество диапазона 100.0 %
CRC копии 60B44283
Копирование... OK

Ошибок не произошло


AccurateRip: сводка

Трек 1 точность не определена (достоверность 1) [D385CBFF], AccurateRip вернул [7F27CEF2] (AR v2)
Трек 2 точность не определена (достоверность 1) [3CA6BA07], AccurateRip вернул [65D826A7] (AR v2)
Трек 3 точность не определена (достоверность 1) [9383B28C], AccurateRip вернул [2867DDFA] (AR v2)
Трек 4 точность не определена (достоверность 1) [18CE5797], AccurateRip вернул [7A4DC60F] (AR v2)
Трек 5 точность не определена (достоверность 1) [F3772257], AccurateRip вернул [F1292631] (AR v2)
Трек 6 точность не определена (достоверность 1) [1B85C34C], AccurateRip вернул [929C98EF] (AR v2)
Трек 7 точность не определена (достоверность 1) [E26C47D7], AccurateRip вернул [778A93DF] (AR v2)
Трек 8 точность не определена (достоверность 1) [28172106], AccurateRip вернул [F8671D75] (AR v2)
Трек 9 точность не определена (достоверность 1) [6C0EFDA0], AccurateRip вернул [05D56769] (AR v2)
Трек 10 точность не определена (достоверность 1) [7051CF9C], AccurateRip вернул [61908F03] (AR v2)
Трек 11 точность не определена (достоверность 1) [EDF26C0F], AccurateRip вернул [5A61E7D0] (AR v2)

Ни один трек не прошёл проверки на точность
В вашей базе может быть иной вариант штамповки диска

Конец отчёта

---- CUETools DB Plugin V2.1.3

[CTDB TOCID: ZXt_X5lAt6L5TpXphXguPkvPFa0-] found, Submit result: already submitted
[4c87153b] (1/1) Accurately ripped

cue
REM GENRE "Melodic Power Metal"
REM DATE 2004
REM DISCID 880D360B
REM COMMENT "ExactAudioCopy v1.0b3"
PERFORMER "Inner Visions"
TITLE "Control The Past"
FILE "Inner Visions - Control The Past.wav" WAVE
TRACK 01 AUDIO
TITLE "Intro - Asleep"
PERFORMER "Inner Visions"
INDEX 01 00:00:00
TRACK 02 AUDIO
TITLE "Big Brother"
PERFORMER "Inner Visions"
INDEX 01 01:58:16
TRACK 03 AUDIO
TITLE "Behind The Grid"
PERFORMER "Inner Visions"
INDEX 01 07:10:37
TRACK 04 AUDIO
TITLE "Eliminate"
PERFORMER "Inner Visions"
INDEX 01 12:07:61
TRACK 05 AUDIO
TITLE "In The Name Of..."
PERFORMER "Inner Visions"
INDEX 01 16:55:24
TRACK 06 AUDIO
TITLE "Control The Past"
PERFORMER "Inner Visions"
INDEX 01 22:38:21
TRACK 07 AUDIO
TITLE "Maze Of Nowhere"
PERFORMER "Inner Visions"
INDEX 01 27:41:42
TRACK 08 AUDIO
TITLE "Wake Up With A Smile"
PERFORMER "Inner Visions"
INDEX 01 31:16:28
TRACK 09 AUDIO
TITLE "The Prophecy"
PERFORMER "Inner Visions"
INDEX 01 36:43:65
TRACK 10 AUDIO
TITLE "When We'll Be Kings"
PERFORMER "Inner Visions"
INDEX 01 41:29:68
TRACK 11 AUDIO
TITLE "Insecure"
PERFORMER "Inner Visions"
INDEX 01 47:24:56

_________________


Top
 Profile E-mail  
 
Display posts from previous:  Sort by  
Post new topic Reply to topic  [ 2 posts ] 

All times are UTC + 3 hours


Who is online

Users browsing this forum: No registered users and 1 guest


You cannot post new topics in this forum
You cannot reply to topics in this forum
You cannot edit your posts in this forum
You cannot delete your posts in this forum
You cannot post attachments in this forum

Search for:
Яндекс.Метрика
Powered by phpBB © 2000, 2002, 2005, 2007 phpBB Group