\m/ 80's metal \m/

Информационно-аналитический форум "80 см пыли" (In Search We Trust) "У нас никто никуда не спешит"
Me For You - http://me-4u.com
It is currently 17 Nov 2018

All times are UTC + 3 hours

Spoiler
Chat - temporary registration for foreign users (please leave your application here)







Post new topic Reply to topic  [ 8 posts ] 
Author Message
 
PostPosted: 09 Jul 2011 
Работнечег
User avatar
Joined: 28 Aug 2007
Posts: 5528
Lоcаtion: г. Москва
Age: 29
Name: Дима
Image

Band: Hush
Album: If You Smile
Year: 1998
Label: Victor
Genre: Hard Rock
Coutry: Norway
Format: Flac + Log + Cue + Covers
Size: 431 Mb

Line-Up:
Kenneth Kristiansen - guitars, keyboards and backing vocals
Patrick Simonsen - vocals, guitar
Ragnar Rutle - drums
Janne Titz - bass, backing vocals


Tracklist:
1. Talk to Me
2. Babe
3. Believe
4. Piece of the Action
5. Let it Rain
6. This side of Love
7. Heaven Ain’t…
8. Big Times
9. Sometimes
10. G & B
11. If (Butterfly) (Bonus Track)
12. This Side Of Love (Japan Bonus Track)

LOG
Exact Audio Copy V0.99 prebeta 5 from 4. May 2009

EAC extraction logfile from 8. July 2011, 18:26

HUSH / If You Smile

Used drive : PIONEER DVD-RW DVR-116D Adapter: 0 ID: 0

Read mode : Secure
Utilize accurate stream : Yes
Defeat audio cache : Yes
Make use of C2 pointers : No

Read offset correction : 96
Overread into Lead-In and Lead-Out : No
Fill up missing offset samples with silence : Yes
Delete leading and trailing silent blocks : No
Null samples used in CRC calculations : Yes
Used interface : Native Win32 interface for Win NT & 2000

Used output format : User Defined Encoder
Selected bitrate : 32 kBit/s
Quality : High
Add ID3 tag : No
Command line compressor : C:\Program Files\Exact Audio Copy\Flac\flac.exe
Additional command line options : -6 -V %s


TOC of the extracted CD

Track | Start | Length | Start sector | End sector
---------------------------------------------------------
1 | 0:00.37 | 4:23.28 | 37 | 19789
2 | 4:23.65 | 5:05.00 | 19790 | 42664
3 | 9:28.65 | 4:47.50 | 42665 | 64239
4 | 14:16.40 | 5:41.40 | 64240 | 89854
5 | 19:58.05 | 5:05.70 | 89855 | 112799
6 | 25:04.00 | 5:50.02 | 112800 | 139051
7 | 30:54.02 | 4:40.23 | 139052 | 160074
8 | 35:34.25 | 3:19.10 | 160075 | 175009
9 | 38:53.35 | 4:19.45 | 175010 | 194479
10 | 43:13.05 | 4:59.22 | 194480 | 216926
11 | 48:12.27 | 4:58.73 | 216927 | 239349
12 | 53:11.25 | 5:02.05 | 239350 | 262004


Range status and errors

Selected range

Filename D:\Музыка\Lossless\Hush - If You Smile (1998) (Japan Edition)\HUSH - If You Smile.wav

Peak level 99.7 %
Range quality 100.0 %
Copy CRC 3BF50E06
Copy OK

No errors occurred


AccurateRip summary

Track 1 not present in database
Track 2 not present in database
Track 3 not present in database
Track 4 not present in database
Track 5 not present in database
Track 6 not present in database
Track 7 not present in database
Track 8 not present in database
Track 9 not present in database
Track 10 not present in database
Track 11 not present in database
Track 12 not present in database

None of the tracks are present in the AccurateRip database

End of status report

CUE
REM GENRE Rock
REM DATE 1998
REM DISCID A80DA50C
REM COMMENT "ExactAudioCopy v0.99pb5"
PERFORMER "HUSH"
TITLE "If You Smile"
FILE "HUSH - If You Smile.flac" WAVE
TRACK 01 AUDIO
TITLE "Talk To Me"
PERFORMER "HUSH"
INDEX 00 00:00:00
INDEX 01 00:00:37
TRACK 02 AUDIO
TITLE "Babe"
PERFORMER "HUSH"
INDEX 00 04:23:53
INDEX 01 04:23:65
TRACK 03 AUDIO
TITLE "Believe"
PERFORMER "HUSH"
INDEX 00 09:26:71
INDEX 01 09:28:65
TRACK 04 AUDIO
TITLE "Piece Of The Action"
PERFORMER "HUSH"
INDEX 00 14:14:06
INDEX 01 14:16:40
TRACK 05 AUDIO
TITLE "Let It Rain"
PERFORMER "HUSH"
INDEX 00 19:57:16
INDEX 01 19:58:05
TRACK 06 AUDIO
TITLE "This Side Of Love"
PERFORMER "HUSH"
INDEX 01 25:04:00
TRACK 07 AUDIO
TITLE "Heaven Ain't"
PERFORMER "HUSH"
INDEX 00 30:52:36
INDEX 01 30:54:02
TRACK 08 AUDIO
TITLE "Big Time"
PERFORMER "HUSH"
INDEX 00 35:34:18
INDEX 01 35:34:25
TRACK 09 AUDIO
TITLE "Sometimes"
PERFORMER "HUSH"
INDEX 00 38:51:08
INDEX 01 38:53:35
TRACK 10 AUDIO
TITLE "G & B"
PERFORMER "HUSH"
INDEX 00 43:12:28
INDEX 01 43:13:05
TRACK 11 AUDIO
TITLE "If (Butterfly) (Bonus Track)"
PERFORMER "HUSH"
INDEX 00 48:03:01
INDEX 01 48:12:27
TRACK 12 AUDIO
TITLE "This Side Of Love (Acoustic) (Japan Bonus Track)"
PERFORMER "HUSH"
INDEX 00 53:09:46
INDEX 01 53:11:25


Narod.Ru

Спасибо Юре uriyy за предоставленный диск ;)
Хороший хард-рок, особенно выделяется Talk To Me


Top
 Profile E-mail  
 
 
PostPosted: 09 Jul 2011 
Хиппей (support team)
User avatar
Joined: 30 Jul 2007
Posts: 108071
Lоcаtion: Киев (Kyiv, UA)
Age: 45
Name: Andrey
:thanx: + :thanx:
mirror: MultiUp l Narod

_________________


Top
 Profile E-mail  
 
 
PostPosted: 10 Jul 2011 
thnx Church and Scatter :dance: :thanx:


Top
  
 
 
PostPosted: 10 Jul 2011 
Хиппей (support team)
User avatar
Joined: 30 Jul 2007
Posts: 108071
Lоcаtion: Киев (Kyiv, UA)
Age: 45
Name: Andrey
Hardrocker29 wrote:
and Scatter

:nea:

_________________


Top
 Profile E-mail  
 
 
PostPosted: 10 Jul 2011 
thnx Scatter and Church , i thought author must be the first :dash: am i wrong tell me? :fingal:

if so thank you Scatter :iii:

Uploader is Dima, buyer is Yuri and Church


Last edited by Hardrocker29 on 11 Jul 2011, edited 1 time in total.

Top
  
 
 
PostPosted: 10 Jul 2011 
Хиппей (support team)
User avatar
Joined: 30 Jul 2007
Posts: 108071
Lоcаtion: Киев (Kyiv, UA)
Age: 45
Name: Andrey
=)

Uploader is Dima, buyer is Yuri. I am only just mirrored (reuploading) files on file sharing :pardon:

_________________


Top
 Profile E-mail  
 
 
PostPosted: 10 Jul 2011 
Персональный статус
User avatar
Joined: 02 Jul 2009
Posts: 293
Name: Александр
Супер !!!!!!! Огромное спасибо !!!!!!!! :thanx: :thanx: :thanx:


Top
 Profile E-mail  
 
 
PostPosted: 27 Aug 2011 
Пионэръ
User avatar
Joined: 08 Nov 2010
Posts: 43
Lоcаtion: Россия
Name: Юрий
Спасибо. забираю.


Top
 Profile E-mail  
 
Display posts from previous:  Sort by  
Post new topic Reply to topic  [ 8 posts ] 

All times are UTC + 3 hours


Who is online

Users browsing this forum: No registered users and 2 guests


You cannot post new topics in this forum
You cannot reply to topics in this forum
You cannot edit your posts in this forum
You cannot delete your posts in this forum
You cannot post attachments in this forum

Search for:
Яндекс.Метрика
Powered by phpBB © 2000, 2002, 2005, 2007 phpBB Group