\m/ 80's metal \m/

Информационно-аналитический форум "80 см пыли" (In Search We Trust) "У нас никто никуда не спешит"
Железнодорожная биржа - RailAgent
It is currently 16 Jul 2018

All times are UTC + 3 hours

Spoiler
Chat - temporary registration for foreign users (please leave your application here)







Post new topic Reply to topic  [ 3 posts ] 
Author Message
 
PostPosted: 12 Jun 2011 
Генеральный thrasher
User avatar
Joined: 03 Oct 2008
Posts: 3405
Lоcаtion: Ханты-Мансийский АО
Age: 43
Name: Сергей
Image

Album:Growing Wings
Year:1993 (2009 Remastered)
Style:Hard Rock
Country:Finland
Audio:Flac+Cue+Log+Covers
Size:558Mb
Label:EMI Finland

Line-Up:
Hannu Leiden - vocals & guitar
Crazy Heiskanen - guitar
Atte Sarcima - drums
Masa Maijanen - bass

Tracklist:
01 Mean Stepmother
02 Burn It Down
03 Evil
04 Sunflower
05 Goodbye
06 King Of The Beggars
07 Reap What I've Sowed
08 Thunder People
09 Groovelands
10 Magic
11 East Is Red
12 Seawind (Bonus Track)
13 No Man's Land (Bonus Track)

Cue
REM DATE 1993
REM DISCID B90FEB0D
REM COMMENT "ExactAudioCopy v0.99pb5"
PERFORMER "Havana Black"
TITLE "Growing Wings"
FILE "Havana Black - Growing Wings.flac" WAVE
TRACK 01 AUDIO
TITLE "Mean Stepmother"
PERFORMER "Havana Black"
INDEX 01 00:00:00
TRACK 02 AUDIO
TITLE "Burn It Down"
PERFORMER "Havana Black"
INDEX 00 05:32:49
INDEX 01 05:33:55
TRACK 03 AUDIO
TITLE "Evil"
PERFORMER "Havana Black"
INDEX 00 09:44:06
INDEX 01 09:44:07
TRACK 04 AUDIO
TITLE "Sunflower"
PERFORMER "Havana Black"
INDEX 00 14:07:08
INDEX 01 14:09:14
TRACK 05 AUDIO
TITLE "Goodbye"
PERFORMER "Havana Black"
INDEX 00 19:42:72
INDEX 01 19:45:09
TRACK 06 AUDIO
TITLE "King Of The Beggars"
PERFORMER "Havana Black"
INDEX 00 25:35:46
INDEX 01 25:35:53
TRACK 07 AUDIO
TITLE "Reap What I've Sowed"
PERFORMER "Havana Black"
INDEX 00 30:24:15
INDEX 01 30:25:11
TRACK 08 AUDIO
TITLE "Thunder People"
PERFORMER "Havana Black"
INDEX 00 35:14:35
INDEX 01 35:14:36
TRACK 09 AUDIO
TITLE "Groovelands"
PERFORMER "Havana Black"
INDEX 00 40:05:50
INDEX 01 40:06:62
TRACK 10 AUDIO
TITLE "Magic"
PERFORMER "Havana Black"
INDEX 00 45:58:62
INDEX 01 45:59:74
TRACK 11 AUDIO
TITLE "East Is Red"
PERFORMER "Havana Black"
INDEX 00 51:41:62
INDEX 01 51:42:65
TRACK 12 AUDIO
TITLE "Seawind"
PERFORMER "Havana Black"
INDEX 00 58:20:54
INDEX 01 58:24:54
TRACK 13 AUDIO
TITLE "No Man's Land"
PERFORMER "Havana Black"
INDEX 00 63:04:68
INDEX 01 63:06:59


Log
Exact Audio Copy V0.99 prebeta 5 from 4. May 2009

Отчёт EAC об извлечении, выполненном 24. апреля 2011, 12:33

Havana Black / Growing Wings

Дисковод: _NEC DVD_RW ND-3551A Adapter: 1 ID: 0

Режим чтения : Достоверность
Использование точного потока : Да
Отключение кэша аудио : Да
Использование указателей C2 : Нет

Коррекция смещения при чтении : 48
Способность читать области Lead-in и Lead-out : Нет
Заполнение пропущенных сэмплов тишиной : Да
Удаление блоков с тишиной в начале и конце : Нет
При вычислениях CRC использовались нулевые сэмплы : Нет
Интерфейс : Установленный внешний ASPI-интерфейс

Выходной формат : Пользовательский кодировщик
Выбранный битрейт : 768 kBit/s
Качество : Высокий
Добавление ID3-тэга : Нет
Утилита сжатия : C:\Program Files\Exact Audio Copy\FLAC\FLAC.EXE
Дополнительные параметры : -6 -V -T "ARTIST=%a" -T "TITLE=%t" -T "ALBUM=%g" -T "DATE=%y" -T "TRACKNUMBER=%n" -T "GENRE=%m" -T "COMMENT=%e" %s -o %d


TOC извлечённого CD

Трек | Старт | Длительность | Начальный сектор | Конечный сектор
---------------------------------------------------------------------
1 | 0:00.00 | 5:33.55 | 0 | 25029
2 | 5:33.55 | 4:10.27 | 25030 | 43806
3 | 9:44.07 | 4:25.07 | 43807 | 63688
4 | 14:09.14 | 5:35.70 | 63689 | 88883
5 | 19:45.09 | 5:50.44 | 88884 | 115177
6 | 25:35.53 | 4:49.33 | 115178 | 136885
7 | 30:25.11 | 4:49.25 | 136886 | 158585
8 | 35:14.36 | 4:52.26 | 158586 | 180511
9 | 40:06.62 | 5:53.12 | 180512 | 206998
10 | 45:59.74 | 5:42.66 | 206999 | 232714
11 | 51:42.65 | 6:41.64 | 232715 | 262853
12 | 58:24.54 | 4:42.05 | 262854 | 284008
13 | 63:06.59 | 4:49.10 | 284009 | 305693


Характеристики диапазона извлечения и сообщения об ошибках

Выбранный диапазон

Имя файла G:\Lossless\Havana Black - Growing Wings.wav

Пиковый уровень 97.9 %
Качество диапазона 100.0 %
CRC копии 2B5D6715
Копирование... OK

Ошибок не произошло


AccurateRip: сводка

Трек 1 нет в базе данных
Трек 2 нет в базе данных
Трек 3 нет в базе данных
Трек 4 нет в базе данных
Трек 5 нет в базе данных
Трек 6 нет в базе данных
Трек 7 нет в базе данных
Трек 8 нет в базе данных
Трек 9 нет в базе данных
Трек 10 нет в базе данных
Трек 11 нет в базе данных
Трек 12 нет в базе данных
Трек 13 нет в базе данных

Ни одного трека нет в базе AccurateRip

Конец отчёта


Growing Wings


Top
 Profile  
 
 
PostPosted: 12 Jun 2011 
Труъ
User avatar
Joined: 14 Jul 2009
Posts: 158
Lоcаtion: Hell Is Here
Age: 48
Name: Adriano
Many Thanx ! :true:


Top
 Profile E-mail  
 
 
PostPosted: 12 Jun 2011 
Хиппей (support team)
User avatar
Joined: 30 Jul 2007
Posts: 105015
Lоcаtion: Киев (Kyiv, UA)
Age: 45
Name: Andrey
:thanx:
mirror: MultiUp l Narod

_________________


Top
 Profile E-mail  
 
Display posts from previous:  Sort by  
Post new topic Reply to topic  [ 3 posts ] 

All times are UTC + 3 hours


Who is online

Users browsing this forum: No registered users and 2 guests


You cannot post new topics in this forum
You cannot reply to topics in this forum
You cannot edit your posts in this forum
You cannot delete your posts in this forum
You cannot post attachments in this forum

Search for:
Яндекс.Метрика
Powered by phpBB © 2000, 2002, 2005, 2007 phpBB Group