\m/ 80's metal \m/

Информационно-аналитический форум "80 см пыли" (In Search We Trust) "У нас никто никуда не спешит"
Me For You - http://me-4u.com
It is currently 21 Nov 2018

All times are UTC + 3 hours

Spoiler
Chat - temporary registration for foreign users (please leave your application here)







Post new topic Reply to topic  [ 10 posts ] 
Author Message
 
PostPosted: 09 May 2011 
А может смените мне статус?..
User avatar
Joined: 04 Jun 2009
Posts: 681
Lоcаtion: Москва
Age: 28
Name: Дмитрий
Bob Hanson (Canada) - 'nuff Said (1990) CCM AOR
Image

Tracklist:
Image

Bitrate: WAV (AudioTape Rip)

:losik:
http://www.megaupload.com/?d=DF2PCQJD

Сканы внутри. На треки не резал.


Top
 Profile E-mail  
 
 
PostPosted: 09 May 2011 
Хиппей (support team)
User avatar
Joined: 30 Jul 2007
Posts: 108243
Lоcаtion: Киев (Kyiv, UA)
Age: 45
Name: Andrey
:thanx:

mirror: MultiUp l Narod

_________________


Top
 Profile E-mail  
 
 
PostPosted: 09 May 2011 
хард н хэвщик (support team)
User avatar
Joined: 02 Jun 2008
Posts: 16880
Lоcаtion: Н.Новгород
Age: 31
Name: Артем
Димка , спасибо ! после дембеля скачаю , послушаю этого лосика :dance: :true: :thanx:


Top
 Profile  
 
 
PostPosted: 09 May 2011 
А может смените мне статус?..
User avatar
Joined: 04 Jun 2009
Posts: 681
Lоcаtion: Москва
Age: 28
Name: Дмитрий
после дембеля заедешь ко мне и послушаем с аудиокассеты :true:


Top
 Profile E-mail  
 
 
PostPosted: 09 May 2011 
хард н хэвщик (support team)
User avatar
Joined: 02 Jun 2008
Posts: 16880
Lоcаtion: Н.Новгород
Age: 31
Name: Артем
White-Lion wrote:
после дембеля заедешь ко мне и послушаем с аудиокассеты :true:
есть , товарищ генерал :true:


Top
 Profile  
 
 
PostPosted: 11 May 2011 
Персональный статус
User avatar
Joined: 11 May 2011
Posts: 416
Lоcаtion: Omsk
Age: 28
Name: Alexander
:gra:
Может пригодится кому :roll:
Bob Hanson - Nuff Said
Code:
REM GENRE "AOR"
REM DATE 1990
PERFORMER "Bob Hanson"
TITLE "'Nuff Said"
FILE "Side A.wav" WAVE
  TRACK 01 AUDIO
    TITLE "Cross at the Light"
    PERFORMER "Bob Hanson"
    INDEX 00 00:00:00
    INDEX 01 00:13:43
  TRACK 02 AUDIO
    TITLE "There was a Time"
    PERFORMER "Bob Hanson"
    INDEX 01 04:16:19
  TRACK 03 AUDIO
    TITLE "You Need to Know"
    PERFORMER "Bob Hanson"
    INDEX 01 08:42:50
  TRACK 04 AUDIO
    TITLE "When It All Comes Down"
    PERFORMER "Bob Hanson"
    INDEX 01 12:46:25
  TRACK 05 AUDIO
    TITLE "Child on the Run"
    PERFORMER "Bob Hanson"
    INDEX 01 17:16:25
  TRACK 06 AUDIO
    TITLE "Seek and You Will Find"
    PERFORMER "Bob Hanson"
    INDEX 01 21:45:50
FILE "Side B.wav" WAVE
  TRACK 07 AUDIO
    TITLE "Open Arms of Love"
    PERFORMER "Bob Hanson"
    INDEX 00 00:00:00
    INDEX 01 00:10:07
  TRACK 08 AUDIO
    TITLE "'Nuff Said"
    PERFORMER "Bob Hanson"
    INDEX 01 04:48:21
  TRACK 09 AUDIO
    TITLE "Signs of the Times"
    PERFORMER "Bob Hanson"
    INDEX 01 07:23:50
  TRACK 10 AUDIO
    TITLE "Great Love"
    PERFORMER "Bob Hanson"
    INDEX 01 11:42:65
  TRACK 11 AUDIO
    TITLE "Fire of Love"
    PERFORMER "Bob Hanson"
    INDEX 01 17:00:18
  TRACK 12 AUDIO
    TITLE "The Light He Shines"
    PERFORMER "Bob Hanson"
    INDEX 01 20:41:52

P.S. Спойлер что-то не работает :(

_________________
Enigma, unholy, ungodly, commander of the regeneration
Insidious and caught, implored by disgrace
Inhumation... The burial of man
Confession... Unify all evil


Last edited by Schmelzer on 11 May 2011, edited 1 time in total.

Top
 Profile E-mail  
 
 
PostPosted: 11 May 2011 
хард н хэвщик (support team)
User avatar
Joined: 02 Jun 2008
Posts: 16880
Lоcаtion: Н.Новгород
Age: 31
Name: Артем
Schmelzer wrote:
P.S. Спойлер что-то не работает :(

тадам
фигли не работаешь ?

тудум | +
:vic:


Top
 Profile  
 
 
PostPosted: 11 May 2011 
Персональный статус
User avatar
Joined: 11 May 2011
Posts: 416
Lоcаtion: Omsk
Age: 28
Name: Alexander
Однако... из-за кавычки открываться не хотел, теперь всё нормально.

_________________
Enigma, unholy, ungodly, commander of the regeneration
Insidious and caught, implored by disgrace
Inhumation... The burial of man
Confession... Unify all evil


Top
 Profile E-mail  
 
 
PostPosted: 31 May 2011 
Персональный статус
Joined: 11 Sep 2010
Posts: 455
Lоcаtion: Тверь
Age: 45
Name: Сергей
Качество плохое, мягко говоря. Высоких частот нет. Кассету заездили или оцифровали так убого ?


Top
 Profile E-mail  
 
 
PostPosted: 08 Jun 2011 
А может смените мне статус?..
User avatar
Joined: 04 Jun 2009
Posts: 681
Lоcаtion: Москва
Age: 28
Name: Дмитрий
с кассетой всё ok, оцифровка плохая((


Top
 Profile E-mail  
 
Display posts from previous:  Sort by  
Post new topic Reply to topic  [ 10 posts ] 

All times are UTC + 3 hours


Who is online

Users browsing this forum: No registered users and 1 guest


You cannot post new topics in this forum
You cannot reply to topics in this forum
You cannot edit your posts in this forum
You cannot delete your posts in this forum
You cannot post attachments in this forum

Search for:
Яндекс.Метрика
Powered by phpBB © 2000, 2002, 2005, 2007 phpBB Group