\m/ 80's metal \m/

Информационно-аналитический форум "80 см пыли" (In Search We Trust) "У нас никто никуда не спешит"
Me For You - http://me-4u.com
It is currently 21 Sep 2018

All times are UTC + 3 hours

Spoiler
Chat - temporary registration for foreign users (please leave your application here)







Post new topic Reply to topic  [ 7 posts ] 
Author Message
 
PostPosted: 01 May 2011 
Генеральный thrasher
User avatar
Joined: 03 Oct 2008
Posts: 3449
Lоcаtion: Ханты-Мансийский АО
Age: 43
Name: Сергей
Image

Year:1987 (2009 Remastered)
Style:Hard Rock
Country:Finland
Audio:Flac+Cue+Log+Covers
Size:354Mb
Label:EMI Finland

Line-Up:
Hannu Leiden - Vocals, Guitar
Markku Heiskanen - Lead Guitar, Backing Vocals
Risto Hankala - Bass, Backing Vocals
Kari Pakkanen - Drums, Backing Vocals

Tracklist:
1. Cafe Interpol
2. Sheila
3. Bad Rhythm
4. Oh Well
5. Love Is A Lie
6. Trashtown
7. Backway
8. Night-Time
9. Guts
10. Faceless Days
Bonus tracks:
11. I Walk This Road
12. Lauders' Scotch

Cue
REM GENRE "Hard Rock"
REM DATE 2009
REM DISCID 8A0A850C
REM COMMENT "ExactAudioCopy v0.99pb5"
PERFORMER "Havana Black"
TITLE "Faceless Days"
FILE "Havana Black - Faceless Days.flac" WAVE
TRACK 01 AUDIO
TITLE "Cafe Interpol"
PERFORMER "Havana Black"
INDEX 01 00:00:00
TRACK 02 AUDIO
TITLE "Sheila"
PERFORMER "Havana Black"
INDEX 00 01:56:51
INDEX 01 01:58:52
TRACK 03 AUDIO
TITLE "Bad Rhythm"
PERFORMER "Havana Black"
INDEX 00 05:44:31
INDEX 01 05:45:31
TRACK 04 AUDIO
TITLE "Oh Well"
PERFORMER "Havana Black"
INDEX 00 09:02:11
INDEX 01 09:03:10
TRACK 05 AUDIO
TITLE "Love Is A Lie"
PERFORMER "Havana Black"
INDEX 00 13:21:33
INDEX 01 13:23:43
TRACK 06 AUDIO
TITLE "Trashtown"
PERFORMER "Havana Black"
INDEX 00 18:13:00
INDEX 01 18:13:72
TRACK 07 AUDIO
TITLE "Backway"
PERFORMER "Havana Black"
INDEX 00 21:56:16
INDEX 01 21:58:21
TRACK 08 AUDIO
TITLE "Night-Time"
PERFORMER "Havana Black"
INDEX 00 25:21:42
INDEX 01 25:22:52
TRACK 09 AUDIO
TITLE "Guts"
PERFORMER "Havana Black"
INDEX 00 30:25:14
INDEX 01 30:26:19
TRACK 10 AUDIO
TITLE "Faceless Days"
PERFORMER "Havana Black"
INDEX 00 33:47:64
INDEX 01 33:50:55
TRACK 11 AUDIO
TITLE "I Walk This Road"
PERFORMER "Havana Black"
INDEX 00 37:03:36
INDEX 01 37:07:44
TRACK 12 AUDIO
TITLE "Lauder's Scotch"
PERFORMER "Havana Black"
INDEX 00 41:12:12
INDEX 01 41:13:22


Log
Exact Audio Copy V0.99 prebeta 5 from 4. May 2009

Отчёт EAC об извлечении, выполненном 20. апреля 2011, 22:07

Havana Black / Faceless Days

Дисковод: _NEC DVD_RW ND-3551A Adapter: 1 ID: 0

Режим чтения : Достоверность
Использование точного потока : Да
Отключение кэша аудио : Да
Использование указателей C2 : Нет

Коррекция смещения при чтении : 48
Способность читать области Lead-in и Lead-out : Нет
Заполнение пропущенных сэмплов тишиной : Да
Удаление блоков с тишиной в начале и конце : Нет
При вычислениях CRC использовались нулевые сэмплы : Нет
Интерфейс : Установленный внешний ASPI-интерфейс

Выходной формат : Пользовательский кодировщик
Выбранный битрейт : 768 kBit/s
Качество : Высокий
Добавление ID3-тэга : Нет
Утилита сжатия : C:\Program Files\Exact Audio Copy\FLAC\FLAC.EXE
Дополнительные параметры : -6 -V -T "ARTIST=%a" -T "TITLE=%t" -T "ALBUM=%g" -T "DATE=%y" -T "TRACKNUMBER=%n" -T "GENRE=%m" -T "COMMENT=%e" %s -o %d


TOC извлечённого CD

Трек | Старт | Длительность | Начальный сектор | Конечный сектор
---------------------------------------------------------------------
1 | 0:00.00 | 1:58.52 | 0 | 8901
2 | 1:58.52 | 3:46.54 | 8902 | 25905
3 | 5:45.31 | 3:17.54 | 25906 | 40734
4 | 9:03.10 | 4:20.33 | 40735 | 60267
5 | 13:23.43 | 4:50.29 | 60268 | 82046
6 | 18:13.72 | 3:44.24 | 82047 | 98870
7 | 21:58.21 | 3:24.31 | 98871 | 114201
8 | 25:22.52 | 5:03.42 | 114202 | 136968
9 | 30:26.19 | 3:24.36 | 136969 | 152304
10 | 33:50.55 | 3:16.64 | 152305 | 167068
11 | 37:07.44 | 4:05.53 | 167069 | 185496
12 | 41:13.22 | 3:40.14 | 185497 | 202010


Характеристики диапазона извлечения и сообщения об ошибках

Выбранный диапазон

Имя файла C:\Documents and Settings\Admin\Мои документы\Havana Black - Faceless Days.wav

Пиковый уровень 98.5 %
Качество диапазона 100.0 %
CRC копии 2CF039F9
Копирование... OK

Ошибок не произошло


AccurateRip: сводка

Трек 1 точное извлечение (доверие 1) [2788BB6D]
Трек 2 точное извлечение (доверие 1) [751001AE]
Трек 3 точное извлечение (доверие 1) [C8D53545]
Трек 4 точное извлечение (доверие 1) [58A42261]
Трек 5 точное извлечение (доверие 1) [4F06C395]
Трек 6 точное извлечение (доверие 1) [A82B6FDA]
Трек 7 точное извлечение (доверие 1) [5AEB8158]
Трек 8 точное извлечение (доверие 1) [5EAE5857]
Трек 9 точное извлечение (доверие 1) [1987AA1B]
Трек 10 точное извлечение (доверие 1) [3ABB502C]
Трек 11 точное извлечение (доверие 1) [7AB473A7]
Трек 12 точное извлечение (доверие 1) [7E8E2849]

Все треки извлечены точно

Конец отчёта


Faceless Days


Top
 Profile  
 
 
PostPosted: 01 May 2011 
хард н хэвщик (support team)
User avatar
Joined: 02 Jun 2008
Posts: 16880
Lоcаtion: Н.Новгород
Age: 31
Name: Артем
Ого, как это неожиданно видеть от тебя, Серег ;)


Top
 Profile  
 
 
PostPosted: 01 May 2011 
Генеральный thrasher
User avatar
Joined: 03 Oct 2008
Posts: 3449
Lоcаtion: Ханты-Мансийский АО
Age: 43
Name: Сергей
Почему,Артём?


Top
 Profile  
 
 
PostPosted: 01 May 2011 
Хиппей (support team)
User avatar
Joined: 30 Jul 2007
Posts: 106393
Lоcаtion: Киев (Kyiv, UA)
Age: 45
Name: Andrey
:thanx:
mirror: MultiUp l Narod

_________________


Top
 Profile E-mail  
 
 
PostPosted: 01 May 2011 
хард н хэвщик (support team)
User avatar
Joined: 02 Jun 2008
Posts: 16880
Lоcаtion: Н.Новгород
Age: 31
Name: Артем
thorbeorn wrote:
Почему,Артём?

в основном кроссовер/трэш постишь :pardon:


Top
 Profile  
 
 
PostPosted: 20 Aug 2011 
Alive Again
User avatar
Joined: 17 Dec 2008
Posts: 4674
Lоcаtion: Курск Воронеж Оскол
Age: 44
Name: Дмитрий
:thanx:


Top
 Profile E-mail  
 
 
PostPosted: 20 Aug 2011 
Я набрал 1000 сообщений!
Joined: 24 Oct 2009
Posts: 2029
Lоcаtion: Оренбург
Age: 55
Name: Юра
Ну-ка, и я слухану... :thanx:

_________________
:dash: I am happy!


Top
 Profile E-mail  
 
Display posts from previous:  Sort by  
Post new topic Reply to topic  [ 7 posts ] 

All times are UTC + 3 hours


Who is online

Users browsing this forum: No registered users and 1 guest


You cannot post new topics in this forum
You cannot reply to topics in this forum
You cannot edit your posts in this forum
You cannot delete your posts in this forum
You cannot post attachments in this forum

Search for:
Яндекс.Метрика
Powered by phpBB © 2000, 2002, 2005, 2007 phpBB Group