\m/ 80's metal \m/

Информационно-аналитический форум "80 см пыли" (In Search We Trust) "У нас никто никуда не спешит"
Me For You - http://me-4u.com
It is currently 17 Oct 2018

All times are UTC + 3 hours

Spoiler
Chat - temporary registration for foreign users (please leave your application here)







Post new topic Reply to topic  [ 2 posts ] 
Author Message
 
PostPosted: 14 Jan 2011 
Работнечег
User avatar
Joined: 28 Aug 2007
Posts: 5464
Lоcаtion: г. Москва
Age: 29
Name: Дима
Image

Band: Helstar
Album: A Distant Thunder
Label: Metal Blade Records (#3984-14207-2)
Genre: Speed Metal
Country: USA
Format: Flac + Log + Cue + Covers
Size: 304 Mb

Line-Up:
James Rivera - Vocals
Larry Barragan - Guitars
Andre Corbin - Guitars
Jerry Abarca - Bass
Frank Ferreira - Drums


Tracklist:
1. The King Is Dead 04:03
2. Bitter End 04:22
3. Abandon Ship 06:56
4. Tyrannicide 05:29
5. Scorcher 05:49
6. Genius of Insanity 05:01
7. (The) Whore of Babylon 02:33
8. Winds of War 06:09
9. He's a Woman, She's a Man (Scorpions cover) 02:55
Total playing time 43:17

LOG
Exact Audio Copy V0.99 prebeta 5 from 4. May 2009

EAC extraction logfile from 11. December 2010, 15:37

Helstar / A Distant Thunder

Used drive : PIONEER DVD-RW DVR-116D Adapter: 0 ID: 0

Read mode : Secure
Utilize accurate stream : Yes
Defeat audio cache : Yes
Make use of C2 pointers : No

Read offset correction : 96
Overread into Lead-In and Lead-Out : No
Fill up missing offset samples with silence : Yes
Delete leading and trailing silent blocks : No
Null samples used in CRC calculations : Yes
Used interface : Native Win32 interface for Win NT & 2000

Used output format : User Defined Encoder
Selected bitrate : 32 kBit/s
Quality : High
Add ID3 tag : No
Command line compressor : C:\Program Files\Exact Audio Copy\Flac\flac.exe
Additional command line options : -6 -V %s


TOC of the extracted CD

Track | Start | Length | Start sector | End sector
---------------------------------------------------------
1 | 0:00.00 | 4:02.30 | 0 | 18179
2 | 4:02.30 | 4:20.10 | 18180 | 37689
3 | 8:22.40 | 6:55.40 | 37690 | 68854
4 | 15:18.05 | 5:29.47 | 68855 | 93576
5 | 20:47.52 | 5:49.53 | 93577 | 119804
6 | 26:37.30 | 5:01.42 | 119805 | 142421
7 | 31:38.72 | 2:32.43 | 142422 | 153864
8 | 34:11.40 | 6:08.15 | 153865 | 181479
9 | 40:19.55 | 2:53.32 | 181480 | 194486


Range status and errors

Selected range

Filename D:\Музыка\Lossless\Helstar - A Distant Thunder (1988)\Helstar - A Distant Thunder.wav

Peak level 98.0 %
Range quality 100.0 %
Copy CRC F6965D13
Copy OK

No errors occurred


AccurateRip summary

Track 1 cannot be verified as accurate (confidence 3) [454D5892], AccurateRip returned [5B36B051]
Track 2 cannot be verified as accurate (confidence 3) [D87BE1D5], AccurateRip returned [4C97AFC5]
Track 3 cannot be verified as accurate (confidence 3) [673FE396], AccurateRip returned [1E7D5903]
Track 4 cannot be verified as accurate (confidence 3) [6215752A], AccurateRip returned [BB2EDD7C]
Track 5 cannot be verified as accurate (confidence 3) [3E3D10C5], AccurateRip returned [D78F5C08]
Track 6 cannot be verified as accurate (confidence 3) [AE5AF153], AccurateRip returned [B551B157]
Track 7 cannot be verified as accurate (confidence 3) [9D2DE48C], AccurateRip returned [E4C7453A]
Track 8 cannot be verified as accurate (confidence 3) [8688D9ED], AccurateRip returned [B497F241]
Track 9 cannot be verified as accurate (confidence 3) [E7E37877], AccurateRip returned [03C43070]

No tracks could be verified as accurate
You may have a different pressing from the one(s) in the database

End of status report

CUE
REM GENRE "Thrash Metal"
REM DATE 1988
REM DISCID 650A2109
REM COMMENT "ExactAudioCopy v0.99pb5"
PERFORMER "Helstar"
TITLE "A Distant Thunder"
FILE "Helstar - A Distant Thunder.flac" WAVE
TRACK 01 AUDIO
TITLE "The King Is Dead"
PERFORMER "Helstar"
INDEX 01 00:00:00
TRACK 02 AUDIO
TITLE "Bitter End"
PERFORMER "Helstar"
INDEX 00 04:00:73
INDEX 01 04:02:30
TRACK 03 AUDIO
TITLE "Abandon Ship"
PERFORMER "Helstar"
INDEX 00 08:19:65
INDEX 01 08:22:40
TRACK 04 AUDIO
TITLE "Tyrannicide"
PERFORMER "Helstar"
INDEX 00 15:15:53
INDEX 01 15:18:05
TRACK 05 AUDIO
TITLE "Scorcher"
PERFORMER "Helstar"
INDEX 00 20:45:16
INDEX 01 20:47:52
TRACK 06 AUDIO
TITLE "Genius Of Insanity"
PERFORMER "Helstar"
INDEX 00 26:35:16
INDEX 01 26:37:30
TRACK 07 AUDIO
TITLE "(The) Whore Of Babylon"
PERFORMER "Helstar"
INDEX 00 31:36:71
INDEX 01 31:38:72
TRACK 08 AUDIO
TITLE "Winds Of War"
PERFORMER "Helstar"
INDEX 00 34:09:23
INDEX 01 34:11:40
TRACK 09 AUDIO
TITLE "He's A Woman, She's A Man"
PERFORMER "Helstar"
INDEX 00 40:17:35
INDEX 01 40:19:55

Spectrum
Image


http://ifolder.ru/20763890

У всех наверное есть, я чего-то залил не подумавши..пускай повисит, может кому-нибудь пригодится.


Top
 Profile E-mail  
 
 
PostPosted: 15 Jan 2011 
metallpaparazzy
User avatar
Joined: 20 Dec 2009
Posts: 674
Lоcаtion: Днепропетровск
Age: 43
Name: Геннадий
:thanx:
канешна пригодиццо! ;)


Top
 Profile E-mail  
 
Display posts from previous:  Sort by  
Post new topic Reply to topic  [ 2 posts ] 

All times are UTC + 3 hours


Who is online

Users browsing this forum: No registered users and 2 guests


You cannot post new topics in this forum
You cannot reply to topics in this forum
You cannot edit your posts in this forum
You cannot delete your posts in this forum
You cannot post attachments in this forum

Search for:
Яндекс.Метрика
Powered by phpBB © 2000, 2002, 2005, 2007 phpBB Group