\m/ 80's metal \m/

Информационно-аналитический форум "80 см пыли" (In Search We Trust) "У нас никто никуда не спешит"
Me For You - http://me-4u.com
It is currently 17 Nov 2018

All times are UTC + 3 hours

Spoiler
Chat - temporary registration for foreign users (please leave your application here)







Post new topic Reply to topic  [ 126 posts ]  Go to page 1, 2, 3, 4, 5 ... 7  Next
Author Message
 
PostPosted: 27 May 2008 
труъ антисионист
User avatar
Joined: 01 Aug 2007
Posts: 4541
Lоcаtion: Откуда и большинство из нас
Age: 37
Name: Дядя Вова
Heretic - Don't Turn Your Back!! & Breaking Point (Compilation) Unofficial Release

Image

Группа: Heretic
Год: 1991
Лейбл: Metal Blade
Стиль: Speed Heavy Metal
Страна: USA
Формат: APE
Размер: 415 Mb

Last known line-up
Mike Howe - Vocals (Metal Church)
Brian Korban - Guitars (Reverend)
Bobby Marquez - Guitars
Dennis O'Hara - Bass (Reverend, Dreams of Damnation)
Rick Merick - Drums


Tracklist:
Torture Knows No Boundary Ep 1986
01.Riding with the angels
02.Blood will tell
03.Portrait of faith
04.Whitechapel
05.Torture knows no boundary
Breaking Point Lp 1988
06.Heretic
07.And kingdoms fall
08.The circle
09.Enemy within
10.Time runs shot
11.Pale shelter ( instr.)
12.Shifting fire
13.Let'em bleed
14.Evil for evil
15.The search

Продолжительность: 64:43

Narod

_________________
Image
Image


Top
 Profile  
 
 
PostPosted: 27 May 2008 
Хиппей (support team)
User avatar
Joined: 30 Jul 2007
Posts: 108071
Lоcаtion: Киев (Kyiv, UA)
Age: 45
Name: Andrey
:true:


Top
 Profile E-mail  
 
 
PostPosted: 27 May 2008 
Thrasher
User avatar
Joined: 07 Oct 2007
Posts: 2756
Lоcаtion: Russia, Moscow
Age: 34
Name: Drunk & Evil
:true: :true:

_________________
ВОДКА, БАБЫ И БЛЮЗ / 40° till death... :bodun:
One time we saw some hookers, but when we got closer, we realised it was Mötley Crüe. ©


Top
 Profile  
 
 
PostPosted: 26 Sep 2009 
Я набрал 1000 сообщений!
User avatar
Joined: 04 Jul 2009
Posts: 1132
Age: 45
Name: dima
Heretic - Breaking Point (Remastered 2009)
НАРОД


Last edited by deminbek on 26 Sep 2009, edited 1 time in total.

Top
 Profile E-mail  
 
 
PostPosted: 26 Sep 2009 
Thrasher
User avatar
Joined: 07 Oct 2007
Posts: 2756
Lоcаtion: Russia, Moscow
Age: 34
Name: Drunk & Evil
deminbek wrote:
Heretic - Breaking Point (Remastered 2009)
http://narod.ru/disk/13543607000/Hereti ... stered2009).rar.html

:thanx:

_________________
ВОДКА, БАБЫ И БЛЮЗ / 40° till death... :bodun:
One time we saw some hookers, but when we got closer, we realised it was Mötley Crüe. ©


Top
 Profile  
 
 
PostPosted: 26 Sep 2009 
Я набрал 1000 сообщений!
User avatar
Joined: 04 Jul 2009
Posts: 1132
Age: 45
Name: dima
Разница между звучанием 91 года конечно существенная. В лучшую сторону, конечно!


Top
 Profile E-mail  
 
 
PostPosted: 27 Sep 2009 
Хиппей (support team)
User avatar
Joined: 30 Jul 2007
Posts: 108071
Lоcаtion: Киев (Kyiv, UA)
Age: 45
Name: Andrey
Спасибо! :true:

_________________


Top
 Profile E-mail  
 
 
PostPosted: 27 Sep 2009 
Работнечег
User avatar
Joined: 28 Aug 2007
Posts: 5528
Lоcаtion: г. Москва
Age: 29
Name: Дима
Спасибо!


Top
 Profile E-mail  
 
 
PostPosted: 15 Sep 2010 
ыыыы
User avatar
Joined: 17 May 2009
Posts: 952
Lоcаtion: Пушкино, МО
Age: 40
Name: Дмитрий
Image


Жанр: Heavy Metal
Происхождение исполнителя: США
Год издания: 1988
Год издания данного носителя: 1989
Страна-производитель носителя: США
Аудио кодек: FLAC
Тип рипа: image+.cue
Битрейт аудио: lossless
Продолжительность: 45:27
Рип: Собственный
Лейбл: ENIGMA/RESTLESS/METAL BLADE
Каталоговый номер: 7 73415-2
Матрица: 73415-2 (V) :: (NIMBUS CD INTL.)

Треклист:
1. Heretic 03:37
2. And Kingdoms Fall 04:55
3. The Circle 05:17
4. Enemy Within 03:21
5. Time Runs Short 06:36
6. Pale Shelter (instrumental) 03:41
7. Shifting Fire 03:58
8. Let 'em Bleed 03:05
9. Evil For Evil 03:53
10. The Search 07:05

"Куй"
REM GENRE Metal
REM DATE 1988
REM DISCID 720AA70A
REM COMMENT "ExactAudioCopy v0.99pb5"
PERFORMER "Heretic"
TITLE "Breaking Point [7 73415-2]"
FILE "Heretic - Breaking Point [7 73415-2].flac" WAVE
TRACK 01 AUDIO
TITLE "Heretic"
PERFORMER "Heretic"
INDEX 01 00:00:00
TRACK 02 AUDIO
TITLE "And Kingdoms Fall"
PERFORMER "Heretic"
INDEX 00 03:34:45
INDEX 01 03:36:57
TRACK 03 AUDIO
TITLE "The Circle"
PERFORMER "Heretic"
INDEX 00 08:29:00
INDEX 01 08:32:12
TRACK 04 AUDIO
TITLE "Enemy Within"
PERFORMER "Heretic"
INDEX 00 13:47:25
INDEX 01 13:48:62
TRACK 05 AUDIO
TITLE "Time Runs Short"
PERFORMER "Heretic"
INDEX 00 17:07:47
INDEX 01 17:09:45
TRACK 06 AUDIO
TITLE "Pale Shelter (Instrumental)"
PERFORMER "Heretic"
INDEX 00 23:44:50
INDEX 01 23:46:00
TRACK 07 AUDIO
TITLE "Shifting Fire"
PERFORMER "Heretic"
INDEX 00 27:24:25
INDEX 01 27:26:52
TRACK 08 AUDIO
TITLE "Let'em Bleed"
PERFORMER "Heretic"
INDEX 00 31:22:25
INDEX 01 31:24:30
TRACK 09 AUDIO
TITLE "Evil For Evil"
PERFORMER "Heretic"
INDEX 00 34:27:32
INDEX 01 34:29:12
TRACK 10 AUDIO
TITLE "The Search"
PERFORMER "Heretic"
INDEX 00 38:20:25
INDEX 01 38:21:70


"Лог"
Exact Audio Copy V0.99 prebeta 5 from 4. May 2009

Отчёт EAC об извлечении, выполненном 15. сентября 2010, 22:25

Heretic / Breaking Point [7 73415-2]

Дисковод: MATSHITADVD-RAM UJ-850S Adapter: 0 ID: 0

Режим чтения : Достоверность
Использование точного потока : Да
Отключение кэша аудио : Да
Использование указателей C2 : Нет

Коррекция смещения при чтении : 102
Способность читать области Lead-in и Lead-out : Нет
Заполнение пропущенных сэмплов тишиной : Да
Удаление блоков с тишиной в начале и конце : Нет
При вычислениях CRC использовались нулевые сэмплы : Да
Интерфейс : Установленный внешний ASPI-интерфейс

Выходной формат : Пользовательский кодировщик
Выбранный битрейт : 128 kBit/s
Качество : Высокий
Добавление ID3-тэга : Нет
Утилита сжатия : C:\Program Files\Exact Audio Copy\Flac\flac.exe
Дополнительные параметры : -6 -V -T "artist=%a" -T "title=%t" -T "album=%g" -T "date=%y" -T "tracknumber=%n" -T "genre=%m" -T "comment=EAC 0.99beta5 / FLAC 1.1.0 q6" %s


TOC извлечённого CD

Трек | Старт | Длительность | Начальный сектор | Конечный сектор
---------------------------------------------------------------------
1 | 0:00.00 | 3:36.57 | 0 | 16256
2 | 3:36.57 | 4:55.30 | 16257 | 38411
3 | 8:32.12 | 5:16.50 | 38412 | 62161
4 | 13:48.62 | 3:20.58 | 62162 | 77219
5 | 17:09.45 | 6:36.30 | 77220 | 106949
6 | 23:46.00 | 3:40.52 | 106950 | 123501
7 | 27:26.52 | 3:57.53 | 123502 | 141329
8 | 31:24.30 | 3:04.57 | 141330 | 155186
9 | 34:29.12 | 3:52.58 | 155187 | 172644
10 | 38:21.70 | 7:05.30 | 172645 | 204549


Характеристики диапазона извлечения и сообщения об ошибках

Выбранный диапазон

Имя файла Y:\Музыка\Heretic\1988 Breaking Point\Heretic - Breaking Point [7 73415-2].wav

Пиковый уровень 94.5 %
Качество диапазона 99.9 %
CRC копии 270703AE
Копирование... OK

Ошибок не произошло


AccurateRip: сводка

Трек 1 точное извлечение (доверие 2) [F4B8DA97]
Трек 2 точное извлечение (доверие 2) [366CD19B]
Трек 3 точное извлечение (доверие 2) [32A8DC73]
Трек 4 точное извлечение (доверие 2) [660F0A9A]
Трек 5 точное извлечение (доверие 2) [2175FC16]
Трек 6 точное извлечение (доверие 2) [3565088A]
Трек 7 точное извлечение (доверие 2) [8DC79E96]
Трек 8 точное извлечение (доверие 2) [1D24191A]
Трек 9 точное извлечение (доверие 2) [1F85A648]
Трек 10 точное извлечение (доверие 2) [06C55C72]

Все треки извлечены точно

Конец отчёта


Состав:
Mike Howe: Vocals
Bobby Marquez: Guitars
Brian Korban: Guitars
Dennis O'Hara: Bass
Rick Merrick: Drums

7 73415-2
Фотки

_________________
Витасу до Даймонда как Алсу до Руссоса | При переразмещении - спрашивать разрешение!!


Last edited by iezuit on 21 Sep 2010, edited 3 times in total.

Top
 Profile  
 
 
PostPosted: 15 Sep 2010 
Thrasher
User avatar
Joined: 07 Oct 2007
Posts: 2756
Lоcаtion: Russia, Moscow
Age: 34
Name: Drunk & Evil
:thanx:

_________________
ВОДКА, БАБЫ И БЛЮЗ / 40° till death... :bodun:
One time we saw some hookers, but when we got closer, we realised it was Mötley Crüe. ©


Top
 Profile  
 
 
PostPosted: 16 Sep 2010 
А может смените мне статус?..
User avatar
Joined: 24 Dec 2008
Posts: 621
Age: 44
Name: Дмитрий
Очень сильный и заводной альбом. Жаль, что таких мало встречается... :true:


Top
 Profile  
 
 
PostPosted: 16 Sep 2010 
Персональный статус
Joined: 14 May 2010
Posts: 236
Age: 37
Name: Денис
Да, отличный альбом!

Мини-арт к нему будет?


Top
 Profile  
 
 
PostPosted: 16 Sep 2010 
ыыыы
User avatar
Joined: 17 May 2009
Posts: 952
Lоcаtion: Пушкино, МО
Age: 40
Name: Дмитрий
попозже- я его с работы забирал и сразу домой поехал, ну а дома ни сканера, ни фотика ))

_________________
Витасу до Даймонда как Алсу до Руссоса | При переразмещении - спрашивать разрешение!!


Top
 Profile  
 
 
PostPosted: 16 Sep 2010 
Хиппей (support team)
User avatar
Joined: 30 Jul 2007
Posts: 108071
Lоcаtion: Киев (Kyiv, UA)
Age: 45
Name: Andrey
:true: :thanx:

_________________


Top
 Profile E-mail  
 
 
PostPosted: 16 Sep 2010 
Я набрал 1000 сообщений!
User avatar
Joined: 04 Jul 2009
Posts: 1132
Age: 45
Name: dima
на мой взгляд, оригинал этого альбома звучит на порядок хуже ремастера


Top
 Profile E-mail  
 
 
PostPosted: 16 Sep 2010 
ыыыы
User avatar
Joined: 17 May 2009
Posts: 952
Lоcаtion: Пушкино, МО
Age: 40
Name: Дмитрий
deminbek
а это самый оригинал и есть ))
С рутракера, если не ошибаюсь? ))

_________________
Витасу до Даймонда как Алсу до Руссоса | При переразмещении - спрашивать разрешение!!


Top
 Profile  
 
 
PostPosted: 16 Sep 2010 
Я набрал 1000 сообщений!
User avatar
Joined: 04 Jul 2009
Posts: 1132
Age: 45
Name: dima
iezuit
Скачал, послушал. эээ, звучание прекрасное. Просто я на рутракере выложил ремастер, а до этого слушал рип этого альбома, который был просто ужасен. Интересно, чего же я слышал? :crazy:


Top
 Profile E-mail  
 
 
PostPosted: 16 Sep 2010 
ыыыы
User avatar
Joined: 17 May 2009
Posts: 952
Lоcаtion: Пушкино, МО
Age: 40
Name: Дмитрий
польшу какую-нибудь..я на этом не специализируюсь :pardon:

_________________
Витасу до Даймонда как Алсу до Руссоса | При переразмещении - спрашивать разрешение!!


Top
 Profile  
 
 
PostPosted: 17 Sep 2010 
5cm
User avatar
Joined: 01 Mar 2009
Posts: 61
Name: Сергей
БОЛЬШОЕ СПАСИБО !!!


Top
 Profile  
 
 
PostPosted: 17 Sep 2010 
А может смените мне статус?..
User avatar
Joined: 24 Dec 2008
Posts: 621
Age: 44
Name: Дмитрий
О! Не заметил год выпуска КД. :shok: Срочно качать!!! :losik: :dance:


Top
 Profile  
 
Display posts from previous:  Sort by  
Post new topic Reply to topic  [ 126 posts ]  Go to page 1, 2, 3, 4, 5 ... 7  Next

All times are UTC + 3 hours


Who is online

Users browsing this forum: No registered users and 2 guests


You cannot post new topics in this forum
You cannot reply to topics in this forum
You cannot edit your posts in this forum
You cannot delete your posts in this forum
You cannot post attachments in this forum

Search for:
Яндекс.Метрика
Powered by phpBB © 2000, 2002, 2005, 2007 phpBB Group