\m/ 80's metal \m/

Информационно-аналитический форум "80 см пыли" (In Search We Trust) "У нас никто никуда не спешит"
Me For You - http://me-4u.com
It is currently 17 Nov 2018

All times are UTC + 3 hours

Spoiler
Chat - temporary registration for foreign users (please leave your application here)







Post new topic Reply to topic  [ 6 posts ] 
Author Message
 
PostPosted: 07 Oct 2010 
адын фелософъ прокметолу
User avatar
Joined: 22 Oct 2009
Posts: 2709
Lоcаtion: Сочи
Age: 41
Name: Сергей
Настоятельно рекомендуется Аорщикам и Хаднхэвщикам
Image
Artist: Hurry Scuary
Album; Breack It Up
Style: Melodic Rock/AOR
Year: 1988
Country: Japan
Audio-format: Loseless (Image+Cue+Log)
Audio Codec: FLAC
RIP: Own
Lenght: 37:37
Label:MSA Records
Catalog Numer: WD 74528

Tracklist:
1. Reaching For the Sun 05:26
2. Top Dog
3. We Can Try Again 04:30
4. You Need a Man 04:17
5. Open Your Eyes 03:42
6. Run For Your Life 04:43
7. Dirty Streets 04:04
8. Crazy 03:47
9. Nothin' New 03:04
10. Feelin' High 03:58

Line-Up:
Yasuhide Minami - Vocals
Hideaki Nakama - Guitar
Junichi Nishino - Bass
Taku Izuhara - Drums
Paul Raymond - keyboard (Guest)

"Cue"
REM DISCID 7408D109
REM COMMENT "ExactAudioCopy v0.95b4"
PERFORMER "Hurry Scuary"
TITLE "Break It Up"
FILE "Hurry Scuary - Break It Up.wav" WAVE
TRACK 01 AUDIO
TITLE "Top Dog/Reaching For The Sun"
PERFORMER "Unknown Artist"
INDEX 01 00:00:00
TRACK 02 AUDIO
TITLE "We Can Try Again"
PERFORMER "Unknown Artist"
INDEX 01 05:25:45
TRACK 03 AUDIO
TITLE "You Need A Man"
PERFORMER "Unknown Artist"
INDEX 01 09:56:40
TRACK 04 AUDIO
TITLE "Open Your Eyes"
PERFORMER "Unknown Artist"
INDEX 01 14:13:45
TRACK 05 AUDIO
TITLE "Run For Your Life"
PERFORMER "Unknown Artist"
INDEX 01 17:56:10
TRACK 06 AUDIO
TITLE "Dirty Streets"
PERFORMER "Unknown Artist"
FLAGS DCP
INDEX 01 22:38:55
TRACK 07 AUDIO
TITLE "Crazy"
PERFORMER "Unknown Artist"
INDEX 01 26:43:50
TRACK 08 AUDIO
TITLE "Nothin' New"
PERFORMER "Unknown Artist"
FLAGS DCP
INDEX 01 30:30:35
TRACK 09 AUDIO
TITLE "Feelin' High"
PERFORMER "Unknown Artist"
FLAGS DCP
INDEX 01 33:35:00


'Log"
Отчёт EAC об извлечении, выполненном 18. сентября 2010, 22:05 для диска:
Hurry Scuarry / Break It Up

Дисковод: Optiarc DVD RW AD-7241S Adapter: 1 ID: 0
Режим чтения: Достоверный (C2: нет, Точный поток: да, Отключение кэша: да)
Коррекция смещения при чтении: 48
Способность читать области Lead-in и Lead-out : Нет

Выходной формат: Внутренние WAV-операции
44.100 Гц; 16 бит; стерео

Другие параметры:
Заполнение пропущенных сэмплов тишиной : Да
Удаление блоков с тишиной в начале и конце : Нет
Установленный внешний ASPI-интерфейс


Характеристики диапазона извлечения и сообщения об ошибках
Выбранный диапазон
Имя файла F:\Несжатая Музыка\Hurry Scuary - Break It Up.wav

Пиковый уровень 100.0 %
Качество диапазона 100.0 %
CRC AFDAB0A4
Копирование... OK

Ошибок не произошло

Конец отчёта
время звучания 37 минут 37 секунд


http://ifolder.ru/19657310

_________________
А теперь ... клоунов и стриптизёрш!


Top
 Profile E-mail  
 
 
PostPosted: 07 Oct 2010 
дядя Миша
User avatar
Joined: 17 Oct 2008
Posts: 3072
Lоcаtion: USSR
Age: 56
Name: Khy
Вот спасибо! Давно хотел купить , да руки не дошли.
Кто любит немецкий Steeler тоже качать!!!
Один альбом - зато какой!!!!!!! культ!


Top
 Profile  
 
 
PostPosted: 07 Oct 2010 
Old Time Rock`n`Roll
User avatar
Joined: 23 Jun 2008
Posts: 3363
Lоcаtion: г.Ульяновск
Age: 40
Name: Константин
А причем тут немецкий Стилер? Японцы же играют традиционный скандинавский мелодик.


Top
 Profile  
 
 
PostPosted: 08 Oct 2010 
спирт 100%
User avatar
Joined: 22 Sep 2008
Posts: 4312
Age: 47
Name: Саня
Послушаем .
Спасибо! :thanx:


Top
 Profile  
 
 
PostPosted: 08 Oct 2010 
Хиппей (support team)
User avatar
Joined: 30 Jul 2007
Posts: 108083
Lоcаtion: Киев (Kyiv, UA)
Age: 45
Name: Andrey
VARVAAR wrote:
Кто любит немецкий Steeler тоже качать!!!

Хм, а в чём сходство? :shok:

_________________


Top
 Profile E-mail  
 
 
PostPosted: 08 Oct 2010 
дядя Миша
User avatar
Joined: 17 Oct 2008
Posts: 3072
Lоcаtion: USSR
Age: 56
Name: Khy
Я слышу сходство с 88 Steeler.......по крайней мере мне так кажется.......
но каждый слышит то , что он хочет слышать.......

p.s. А я думал , что HS только японцы печатали....


Top
 Profile  
 
Display posts from previous:  Sort by  
Post new topic Reply to topic  [ 6 posts ] 

All times are UTC + 3 hours


Who is online

Users browsing this forum: No registered users and 2 guests


You cannot post new topics in this forum
You cannot reply to topics in this forum
You cannot edit your posts in this forum
You cannot delete your posts in this forum
You cannot post attachments in this forum

Search for:
Яндекс.Метрика
Powered by phpBB © 2000, 2002, 2005, 2007 phpBB Group