\m/ 80's metal \m/

Информационно-аналитический форум "80 см пыли" (In Search We Trust) "У нас никто никуда не спешит"
Me For You - http://me-4u.com
It is currently 13 Nov 2018

All times are UTC + 3 hours

Spoiler
Chat - temporary registration for foreign users (please leave your application here)







Post new topic Reply to topic  [ 5 posts ] 
Author Message
 
PostPosted: 13 Aug 2010 
5cm
User avatar
Joined: 01 Mar 2009
Posts: 61
Name: Сергей
Image

Year: 1995 (2004)
Style: Thrash/Heavy Metal
Country: Poland
Audio: Flac + Cue + Log + Video
Size: 566 Mb
Label: Mystic Productions

Tracklist:
1. Misery 05:58
2. Blindman 03:29
3. Introduction 01:26
4. Screamin' Whispers 03:55
5. Freedom 06:57
6. Time of Hate 04:02
7. No More Cry 03:11
8. Żniwiarze Umysłów 06:04
9. Branded 02:51
10. Post Scriptum 01:22
11. Requiem 04:30
12. War 02:49
13. Amen 00:48
14. Ultimate Silence 00:26
15. Requiem (Polish Version) 07:04
=======================
Total playing time 54:52

Image

www.metal-archives.com


LOG
Exact Audio Copy V0.99 prebeta 3 from 28. July 2007

EAC extraction logfile from 24. January 2008, 19:55

Hunter / Requiem

Used drive : HL-DT-STCD-RW GCE-8520B Adapter: 1 ID: 1

Read mode : Secure
Utilize accurate stream : Yes
Defeat audio cache : Yes
Make use of C2 pointers : No

Read offset correction : 6
Overread into Lead-In and Lead-Out : No
Fill up missing offset samples with silence : Yes
Delete leading and trailing silent blocks : No
Null samples used in CRC calculations : Yes
Used interface : Installed external ASPI interface

Used output format : Internal WAV Routines
Sample format : 44.100 Hz; 16 Bit; Stereo


TOC of the extracted CD

Track | Start | Length | Start sector | End sector
---------------------------------------------------------
1 | 0:00.00 | 5:58.65 | 0 | 26914
2 | 5:58.65 | 3:29.07 | 26915 | 42596
3 | 9:27.72 | 1:26.16 | 42597 | 49062
4 | 10:54.13 | 3:55.08 | 49063 | 66695
5 | 14:49.21 | 6:55.51 | 66696 | 97871
6 | 21:44.72 | 4:02.60 | 97872 | 116081
7 | 25:47.57 | 3:09.37 | 116082 | 130293
8 | 28:57.19 | 6:02.62 | 130294 | 157505
9 | 35:00.06 | 2:51.41 | 157506 | 170371
10 | 37:51.47 | 1:22.52 | 170372 | 176573
11 | 39:14.24 | 4:31.15 | 176574 | 196913
12 | 43:45.39 | 2:49.03 | 196914 | 209591
13 | 46:34.42 | 0:43.41 | 209592 | 212857
14 | 47:18.08 | 0:30.64 | 212858 | 215171
15 | 47:48.72 | 6:59.44 | 215172 | 246640
16 | 57:20.41 | 13:09.46 | 258041 | 317261


Range status and errors

Selected range

Filename z:\media\disk-1\temp\Hunter - Requiem.wav

Peak level 100.0 %
Range quality 99.9 %
Copy CRC F5BBF0F9
Copy OK

No errors occurred


AccurateRip summary

Track 1 not present in database
Track 2 not present in database
Track 3 not present in database
Track 4 not present in database
Track 5 not present in database
Track 6 not present in database
Track 7 not present in database
Track 8 not present in database
Track 9 not present in database
Track 10 not present in database
Track 11 not present in database
Track 12 not present in database
Track 13 not present in database
Track 14 not present in database
Track 15 not present in database

None of the tracks are present in the AccurateRip database

End of status report


За рип СПАСИБО польским товарищам!
Narod


Top
 Profile  
 
 
PostPosted: 13 Aug 2010 
Работнечег
User avatar
Joined: 28 Aug 2007
Posts: 5493
Lоcаtion: г. Москва
Age: 29
Name: Дима
Спасибо огромное! На мой взгляд лучший альбом в дискографии группы! :true:


Top
 Profile E-mail  
 
 
PostPosted: 13 Aug 2010 
Прокъмитолист
User avatar
Joined: 12 Aug 2007
Posts: 6500
Lоcаtion: Санктъ-Петербуркъ
Age: 51
Name: Олекъ
вроде нет такого. спасибо, Сереж (ну и польским товарищам передавай) :true:

_________________
прокъметол - это музыко, от которово есть прок (ы)


Top
 Profile  
 
 
PostPosted: 13 Aug 2010 
Хиппей (support team)
User avatar
Joined: 30 Jul 2007
Posts: 107899
Lоcаtion: Киев (Kyiv, UA)
Age: 45
Name: Andrey
Спасибо всем, всем, всем :true:

_________________


Top
 Profile E-mail  
 
 
PostPosted: 19 Aug 2010 
труъ антисионист
User avatar
Joined: 01 Aug 2007
Posts: 4541
Lоcаtion: Откуда и большинство из нас
Age: 37
Name: Дядя Вова
Огромное спасибо, я как раз только начал знакомство с этим коллективом, а тут лось целый! :true:

_________________
Image
Image


Top
 Profile  
 
Display posts from previous:  Sort by  
Post new topic Reply to topic  [ 5 posts ] 

All times are UTC + 3 hours


Who is online

Users browsing this forum: No registered users and 3 guests


You cannot post new topics in this forum
You cannot reply to topics in this forum
You cannot edit your posts in this forum
You cannot delete your posts in this forum
You cannot post attachments in this forum

Search for:
Яндекс.Метрика
Powered by phpBB © 2000, 2002, 2005, 2007 phpBB Group