\m/ 80's metal \m/

Информационно-аналитический форум "80 см пыли" (In Search We Trust) "У нас никто никуда не спешит"
Железнодорожная биржа - RailAgent
It is currently 21 May 2018

All times are UTC + 3 hours

Spoiler
Chat - temporary registration for foreign users (please leave your application here)







Post new topic Reply to topic  [ 7 posts ] 
Author Message
 
PostPosted: 23 Jun 2010 
Генеральный thrasher
User avatar
Joined: 03 Oct 2008
Posts: 3394
Lоcаtion: Ханты-Мансийский АО
Age: 43
Name: Сергей
Image

Image

Year:1984 (2009 Re-Issue)
Style:Heavy Metal
Country:France
Audio:Flac+Cue+Log
Size:306Mb
Label:Axe Killer

Line-Up:
Vocals : Didier Izard
Guitars : Armando Ferreira
Guitars : Paul Ferreira
Bass : Philipe Garcia
Drums : Gerard Miche

Tracklist:
1. Exterminateurs 03:17
2. Dresser а Tuer 04:26
3. Gwendoline 03:11
4. Substance Mort 04:44
5. Reve de Puissance 03:27
6. Double Bang 04:07
7. Le Glaive 04:06
8. Crache et Creve 03:21
9. Fou Sanguinaire 04:33
10. La Horde 03:44

Cue
REM GENRE "Heavy Metal"
REM DATE 2009
REM DISCID 9209450A
REM COMMENT "ExactAudioCopy v0.99pb4"
PERFORMER "H-BOMB"
TITLE "Attaque"
FILE "H-BOMB - Attaque.flac" WAVE
TRACK 01 AUDIO
TITLE "Exterminateurs"
PERFORMER "H-BOMB"
INDEX 00 00:00:00
INDEX 01 00:00:32
TRACK 02 AUDIO
TITLE "Dresser A Tuer"
PERFORMER "H-BOMB"
INDEX 00 04:29:32
INDEX 01 04:31:27
TRACK 03 AUDIO
TITLE "Gwendoline"
PERFORMER "H-BOMB"
INDEX 00 07:44:15
INDEX 01 07:45:47
TRACK 04 AUDIO
TITLE "Substance Mort"
PERFORMER "H-BOMB"
INDEX 00 12:32:02
INDEX 01 12:33:35
TRACK 05 AUDIO
TITLE "Reve De Puissance"
PERFORMER "H-BOMB"
INDEX 00 15:52:20
INDEX 01 15:53:55
TRACK 06 AUDIO
TITLE "Double Bang"
PERFORMER "H-BOMB"
INDEX 00 19:23:20
INDEX 01 19:24:70
TRACK 07 AUDIO
TITLE "Le Glaive"
PERFORMER "H-BOMB"
INDEX 00 23:34:15
INDEX 01 23:35:65
TRACK 08 AUDIO
TITLE "Crache Et Creve"
PERFORMER "H-BOMB"
INDEX 00 27:43:36
INDEX 01 27:45:15
TRACK 09 AUDIO
TITLE "Fou Sanguinaire"
PERFORMER "H-BOMB"
INDEX 00 31:07:70
INDEX 01 31:09:37
TRACK 10 AUDIO
TITLE "La Horde"
PERFORMER "H-BOMB"
INDEX 00 35:45:02
INDEX 01 35:46:27


Log
Exact Audio Copy V0.99 prebeta 4 from 23. January 2008

Отчёт EAC об извлечении, выполненном 23. июня 2010, 9:40

H-BOMB / Attaque

Дисковод: TSSTcorpCDDVDW SH-S202N Adapter: 0 ID: 1

Режим чтения : Достоверность
Использование точного потока : Да
Отключение кэша аудио : Да
Использование указателей C2 : Нет

Коррекция смещения при чтении : 6
Способность читать области Lead-in и Lead-out : Нет
Заполнение пропущенных сэмплов тишиной : Да
Удаление блоков с тишиной в начале и конце : Нет
При вычислениях CRC использовались нулевые сэмплы : Нет
Интерфейс : Установленный внешний ASPI-интерфейс

Выходной формат : Пользовательский кодировщик
Выбранный битрейт : 768 kBit/s
Качество : Высокий
Добавление ID3-тэга : Нет
Утилита сжатия : C:\Program Files\Exact Audio Copy\FLAC\FLAC.EXE
Дополнительные параметры : -6 -V -T "ARTIST=%a" -T "TITLE=%t" -T "ALBUM=%g" -T "DATE=%y" -T "TRACKNUMBER=%n" -T "GENRE=%m" -T "COMMENT=%e" %s -o %d


TOC извлечённого CD

Трек | Старт | Длительность | Начальный сектор | Конечный сектор
---------------------------------------------------------------------
1 | 0:00.32 | 4:30.70 | 32 | 20351
2 | 4:31.27 | 3:14.20 | 20352 | 34921
3 | 7:45.47 | 4:47.63 | 34922 | 56509
4 | 12:33.35 | 3:20.20 | 56510 | 71529
5 | 15:53.55 | 3:31.15 | 71530 | 87369
6 | 19:24.70 | 4:10.70 | 87370 | 106189
7 | 23:35.65 | 4:09.25 | 106190 | 124889
8 | 27:45.15 | 3:24.22 | 124890 | 140211
9 | 31:09.37 | 4:36.65 | 140212 | 160976
10 | 35:46.27 | 3:47.20 | 160977 | 178021


Характеристики диапазона извлечения и сообщения об ошибках

Выбранный диапазон

Имя файла F:\Лоси\H\H-BOMB - Attaque.wav

Пиковый уровень 100.0 %
Качество диапазона 100.0 %
CRC копии 2398C3C0
Копирование... OK

Ошибок не произошло


AccurateRip: сводка

Трек 1 нет в базе данных
Трек 2 нет в базе данных
Трек 3 нет в базе данных
Трек 4 нет в базе данных
Трек 5 нет в базе данных
Трек 6 нет в базе данных
Трек 7 нет в базе данных
Трек 8 нет в базе данных
Трек 9 нет в базе данных
Трек 10 нет в базе данных

Ни одного трека нет в базе AccurateRip

Конец отчёта


Megaupload


Top
 Profile  
 
 
PostPosted: 23 Jun 2010 
Прокъмитолист
User avatar
Joined: 12 Aug 2007
Posts: 6382
Lоcаtion: Санктъ-Петербуркъ
Age: 50
Name: Олекъ
и еще пара пива для тебя! :drink: :true:

_________________
прокъметол - это музыко, от которово есть прок (ы)


Top
 Profile  
 
 
PostPosted: 23 Jun 2010 
Генеральный thrasher
User avatar
Joined: 03 Oct 2008
Posts: 3394
Lоcаtion: Ханты-Мансийский АО
Age: 43
Name: Сергей
Спасибо.Пивко не повредит.


Top
 Profile  
 
 
PostPosted: 23 Jun 2010 
Power Metal Maniac
User avatar
Joined: 09 Aug 2008
Posts: 6077
Lоcаtion: Москва
Age: 40
Name: Егор
:true: :thanx:

_________________
Long Live Metal!


Top
 Profile  
 
 
PostPosted: 23 Jun 2010 
Хиппей (support team)
User avatar
Joined: 30 Jul 2007
Posts: 103496
Lоcаtion: Киев (Kyiv, UA)
Age: 44
Name: Andrey
Спасибо большое и... вкусное :true:

_________________


Top
 Profile E-mail  
 
 
PostPosted: 25 Jun 2010 
Почётный металлург
User avatar
Joined: 15 Sep 2007
Posts: 4357
Lоcаtion: Хабаровск
Age: 58
Name: чуть выше
Спасибо!

_________________
Коль будешь людей ты ослами честить,
тебе человеком меж них не прослыть!
(Саади, персидский поэт, 13в.)


Top
 Profile  
 
 
PostPosted: 31 Oct 2010 
Old Time Rock`n`Roll
User avatar
Joined: 23 Jun 2008
Posts: 3335
Lоcаtion: г.Ульяновск
Age: 39
Name: Константин
Спасибо за оба альбома! :thanx:


Top
 Profile  
 
Display posts from previous:  Sort by  
Post new topic Reply to topic  [ 7 posts ] 

All times are UTC + 3 hours


Who is online

Users browsing this forum: No registered users and 3 guests


You cannot post new topics in this forum
You cannot reply to topics in this forum
You cannot edit your posts in this forum
You cannot delete your posts in this forum
You cannot post attachments in this forum

Search for:
Яндекс.Метрика
Powered by phpBB © 2000, 2002, 2005, 2007 phpBB Group