\m/ 80's metal \m/

Информационно-аналитический форум "80 см пыли" (In Search We Trust) "У нас никто никуда не спешит"
Me For You - http://me-4u.com
It is currently 23 Sep 2018

All times are UTC + 3 hours

Spoiler
Chat - temporary registration for foreign users (please leave your application here)







Post new topic Reply to topic  [ 8 posts ] 
Author Message
 
PostPosted: 23 Jun 2010 
Генеральный thrasher
User avatar
Joined: 03 Oct 2008
Posts: 3449
Lоcаtion: Ханты-Мансийский АО
Age: 43
Name: Сергей
Image

Year:1983 (2009 Re-Issue)
Style:Heavy Metal
Country:France
Audio:Flac+Cue+Log
Size:284Mb
Label:Axe Killer

Line-Up:
Vocals : Didier Izard
Guitars : Armando Ferreira
Guitars : Christian Martin
Bass : Philipe Garcia
Drums : Gerard Miche

Tracklist:
1. H-Bomb 03:11
2. Dans les Griffes D'Attila 04:12
3. Chasseur de Frime 03:10
4. Le Loup 04:02
5. Condamne а Mort 03:16
6. Coup de Metal 03:05
7. To Feel Is Pain 03:18
8. Can't Stop Lovin' 04:28
9. Stop The Lights 05:07
10. Space Station No.5 02:57

Cue
REM GENRE "Heavy Metal"
REM DATE 1983
REM DISCID 7F089F0A
REM COMMENT "ExactAudioCopy v0.99pb4"
PERFORMER "H-Bomb"
TITLE "Coup De Mйtal"
FILE "H-Bomb - Coup De Mйtal.flac" WAVE
TRACK 01 AUDIO
TITLE "H-Bomb"
PERFORMER "H-Bomb"
INDEX 00 00:00:00
INDEX 01 00:00:32
TRACK 02 AUDIO
TITLE "Dans Les Griffes D'Attila"
PERFORMER "H-Bomb"
INDEX 00 03:10:15
INDEX 01 03:11:52
TRACK 03 AUDIO
TITLE "Chasseur De Frime"
PERFORMER "H-Bomb"
INDEX 00 07:22:70
INDEX 01 07:23:72
TRACK 04 AUDIO
TITLE "Le Loup"
PERFORMER "H-Bomb"
INDEX 00 10:32:65
INDEX 01 10:34:32
TRACK 05 AUDIO
TITLE "Condamne A Mort"
PERFORMER "H-Bomb"
INDEX 00 14:36:15
INDEX 01 14:37:27
TRACK 06 AUDIO
TITLE "Coup De Metal"
PERFORMER "H-Bomb"
INDEX 00 17:51:70
INDEX 01 17:53:55
TRACK 07 AUDIO
TITLE "To Feel Is Pain"
PERFORMER "H-Bomb"
INDEX 00 20:57:35
INDEX 01 20:59:37
TRACK 08 AUDIO
TITLE "Cant't Stop Lovin'"
PERFORMER "H-Bomb"
INDEX 00 24:15:70
INDEX 01 24:18:07
TRACK 09 AUDIO
TITLE "Stop The Lights"
PERFORMER "H-Bomb"
INDEX 00 28:43:68
INDEX 01 28:45:70
TRACK 10 AUDIO
TITLE "Space Station #5"
PERFORMER "H-Bomb"
INDEX 00 33:50:52
INDEX 01 33:52:42


Log
Exact Audio Copy V0.99 prebeta 4 from 23. January 2008

Отчёт EAC об извлечении, выполненном 23. июня 2010, 9:30

H-Bomb / Coup De Mйtal

Дисковод: TSSTcorpCDDVDW SH-S202N Adapter: 0 ID: 1

Режим чтения : Достоверность
Использование точного потока : Да
Отключение кэша аудио : Да
Использование указателей C2 : Нет

Коррекция смещения при чтении : 6
Способность читать области Lead-in и Lead-out : Нет
Заполнение пропущенных сэмплов тишиной : Да
Удаление блоков с тишиной в начале и конце : Нет
При вычислениях CRC использовались нулевые сэмплы : Нет
Интерфейс : Установленный внешний ASPI-интерфейс

Выходной формат : Пользовательский кодировщик
Выбранный битрейт : 768 kBit/s
Качество : Высокий
Добавление ID3-тэга : Нет
Утилита сжатия : C:\Program Files\Exact Audio Copy\FLAC\FLAC.EXE
Дополнительные параметры : -6 -V -T "ARTIST=%a" -T "TITLE=%t" -T "ALBUM=%g" -T "DATE=%y" -T "TRACKNUMBER=%n" -T "GENRE=%m" -T "COMMENT=%e" %s -o %d


TOC извлечённого CD

Трек | Старт | Длительность | Начальный сектор | Конечный сектор
---------------------------------------------------------------------
1 | 0:00.32 | 3:11.20 | 32 | 14376
2 | 3:11.52 | 4:12.20 | 14377 | 33296
3 | 7:23.72 | 3:10.35 | 33297 | 47581
4 | 10:34.32 | 4:02.70 | 47582 | 65801
5 | 14:37.27 | 3:16.28 | 65802 | 80529
6 | 17:53.55 | 3:05.57 | 80530 | 94461
7 | 20:59.37 | 3:18.45 | 94462 | 109356
8 | 24:18.07 | 4:27.63 | 109357 | 129444
9 | 28:45.70 | 5:06.47 | 129445 | 152441
10 | 33:52.42 | 2:54.68 | 152442 | 165559


Характеристики диапазона извлечения и сообщения об ошибках

Выбранный диапазон

Имя файла F:\Лоси\H\H-Bomb - Coup De Mйtal.wav

Пиковый уровень 100.0 %
Качество диапазона 100.0 %
CRC копии A27B9CD6
Копирование... OK

Ошибок не произошло


AccurateRip: сводка

Трек 1 точность не определена (достоверность 3) [66C36965], AccurateRip вернул [395DB10D]
Трек 2 точность не определена (достоверность 3) [18C1C170], AccurateRip вернул [8E95B270]
Трек 3 точность не определена (достоверность 3) [2DE3CD1E], AccurateRip вернул [BF9A5016]
Трек 4 точность не определена (достоверность 3) [96E027EC], AccurateRip вернул [7E7370FC]
Трек 5 точность не определена (достоверность 3) [87E9E855], AccurateRip вернул [094AE0FD]
Трек 6 точность не определена (достоверность 3) [389BA73F], AccurateRip вернул [A10F4447]
Трек 7 нет в базе данных
Трек 8 нет в базе данных
Трек 9 нет в базе данных
Трек 10 нет в базе данных

6 трек(и) не удалось проверить на точность
4 трек(и) не содержатся в базе AccurateRip

Ни один трек не прошёл проверки на точность
В вашей базе может быть иной вариант штамповки диска

Конец отчёта


Megaupload


Top
 Profile  
 
 
PostPosted: 23 Jun 2010 
Генеральный thrasher
User avatar
Joined: 03 Oct 2008
Posts: 3449
Lоcаtion: Ханты-Мансийский АО
Age: 43
Name: Сергей
Диски пришли.Как и обещал вот вам лосик... :losik:


Top
 Profile  
 
 
PostPosted: 23 Jun 2010 
Прокъмитолист
User avatar
Joined: 12 Aug 2007
Posts: 6472
Lоcаtion: Санктъ-Петербуркъ
Age: 50
Name: Олекъ
thorbeorn wrote:
Как и обещал

спасибо, Сереж! :thanx: :dance:

_________________
прокъметол - это музыко, от которово есть прок (ы)


Top
 Profile  
 
 
PostPosted: 23 Jun 2010 
Генеральный thrasher
User avatar
Joined: 03 Oct 2008
Posts: 3449
Lоcаtion: Ханты-Мансийский АО
Age: 43
Name: Сергей
На здоровье! :true:


Top
 Profile  
 
 
PostPosted: 23 Jun 2010 
Power Metal Maniac
User avatar
Joined: 09 Aug 2008
Posts: 6301
Lоcаtion: Москва
Age: 40
Name: Егор
:true: :true: :true: :true:

_________________
Long Live Metal!


Top
 Profile  
 
 
PostPosted: 23 Jun 2010 
Хиппей (support team)
User avatar
Joined: 30 Jul 2007
Posts: 106473
Lоcаtion: Киев (Kyiv, UA)
Age: 45
Name: Andrey
Серёга, спасибо! :thanx:

_________________


Top
 Profile E-mail  
 
 
PostPosted: 25 Jun 2010 
Почётный металлург
User avatar
Joined: 15 Sep 2007
Posts: 4357
Lоcаtion: Хабаровск
Age: 58
Name: чуть выше
Благодарюс! Заценим. :thanx:

_________________
Коль будешь людей ты ослами честить,
тебе человеком меж них не прослыть!
(Саади, персидский поэт, 13в.)


Top
 Profile  
 
 
PostPosted: 27 Jun 2010 
дядя Миша
User avatar
Joined: 17 Oct 2008
Posts: 3054
Lоcаtion: USSR
Age: 56
Name: Khy
хороший бокс сет ! интересно там мастеринг какого года?


Top
 Profile  
 
Display posts from previous:  Sort by  
Post new topic Reply to topic  [ 8 posts ] 

All times are UTC + 3 hours


Who is online

Users browsing this forum: No registered users and 2 guests


You cannot post new topics in this forum
You cannot reply to topics in this forum
You cannot edit your posts in this forum
You cannot delete your posts in this forum
You cannot post attachments in this forum

Search for:
Яндекс.Метрика
Powered by phpBB © 2000, 2002, 2005, 2007 phpBB Group