\m/ 80's metal \m/

Информационно-аналитический форум "80 см пыли" (In Search We Trust) "У нас никто никуда не спешит"
Me For You - http://me-4u.com
It is currently 17 Nov 2018

All times are UTC + 3 hours

Spoiler
Chat - temporary registration for foreign users (please leave your application here)







Post new topic Reply to topic  [ 2 posts ] 
Author Message
 
PostPosted: 21 Apr 2010 
Хиппей (support team)
User avatar
Joined: 30 Jul 2007
Posts: 108071
Lоcаtion: Киев (Kyiv, UA)
Age: 45
Name: Andrey
Hellraiser 1990 - We'll Bury You - [flac] - vinyl rip [Мелодия С90-31083-005]

Image

Image

Genre: Heavy Metal/Thrash Metal
Location: Russia
Format: flac+cue+scans
Size: 389 Mb


    1. Rockets In The Air - 06:44
    2. I Got A Power - 05:29
    3. Dark Side Of You - 09:29
    4. I Wanna Be Free - 04:46
    5. Danger Zone - 03:56
    6. Win The Battle - 03:59
    7. Snakes In The Kitchen - 05:42
    8. Outro - 05:38

    TPT: 45:43

Narod l MultiUp

Все благодарности за рип винила Сашке Savely :thanx:

cue
PERFORMER "Hellraiser"
TITLE "We'll Bury You !"
FILE "НELLRAISER [1990] [LP] We'll Bury You [МЕЛОДИЯ С90-31083-005].flac" WAVE
TRACK 01 AUDIO
TITLE "Rockets In The Air"
PERFORMER "Hellraiser"
ISRC 000000000000
FLAGS DCP
INDEX 01 00:00:00
TRACK 02 AUDIO
TITLE "I Got A Power"
PERFORMER "Hellraiser"
ISRC 000000000000
FLAGS DCP
INDEX 01 06:34:47
TRACK 03 AUDIO
TITLE "Dark Side Of You"
PERFORMER "Hellraiser"
ISRC 000000000000
FLAGS DCP
INDEX 01 12:02:34
TRACK 04 AUDIO
TITLE "I Wanna Be Free"
PERFORMER "Hellraiser"
ISRC 000000000000
FLAGS DCP
INDEX 01 21:31:07
TRACK 05 AUDIO
TITLE "Danger Zone"
PERFORMER "Hellraiser"
ISRC 000000000000
FLAGS DCP
INDEX 01 26:15:17
TRACK 06 AUDIO
TITLE "Win The Battle"
PERFORMER "Hellraiser"
ISRC 000000000000
FLAGS DCP
INDEX 01 30:09:66
TRACK 07 AUDIO
TITLE "Snakes In The Kitchen"
PERFORMER "Hellraiser"
ISRC 000000000000
FLAGS DCP
INDEX 01 34:07:07
TRACK 08 AUDIO
TITLE "Outro"
PERFORMER "Hellraiser"
ISRC 000000000000
FLAGS DCP
INDEX 01 38:42:18

_________________


Top
 Profile E-mail  
 
 
PostPosted: 21 Apr 2010 
metallpaparazzy
User avatar
Joined: 20 Dec 2009
Posts: 674
Lоcаtion: Днепропетровск
Age: 43
Name: Геннадий
:true: команда молодости нашей... :nunu:
:thanx:


Top
 Profile E-mail  
 
Display posts from previous:  Sort by  
Post new topic Reply to topic  [ 2 posts ] 

All times are UTC + 3 hours


Who is online

Users browsing this forum: No registered users and 6 guests


You cannot post new topics in this forum
You cannot reply to topics in this forum
You cannot edit your posts in this forum
You cannot delete your posts in this forum
You cannot post attachments in this forum

Search for:
Яндекс.Метрика
Powered by phpBB © 2000, 2002, 2005, 2007 phpBB Group