\m/ 80's metal \m/

Информационно-аналитический форум "80 см пыли" (In Search We Trust) "У нас никто никуда не спешит"
Железнодорожная биржа - RailAgent
It is currently 18 Jul 2018

All times are UTC + 3 hours

Spoiler
Chat - temporary registration for foreign users (please leave your application here)







Post new topic Reply to topic  [ 28 posts ]  Go to page Previous  1, 2
Author Message
 
PostPosted: 25 Mar 2010 
ыыыы
User avatar
Joined: 17 May 2009
Posts: 952
Lоcаtion: Пушкино, МО
Age: 39
Name: Дмитрий
Image


Жанр: Hard Rock
Происхождение исполнителя: Голландия
Год издания: 1985
Год издания данного носителя: 1996
Страна-производитель носителя: Япония - Австрия
Аудио кодек: FLAC
Тип рипа: image+.cue
Битрейт аудио: lossless
Продолжительность: 76:55
Рип: Собственный
Лейбл: WEA-PSEUDONYM/AVALON-CHOKU YUNYUBAN
Каталоговый номер: MAR-96296 / CDP-1035-DD
Матрица: A0100197982-0101 13 A0 (DADC-SONY)

Треклист:
1. Cosmogony 04:43
2. Broken Hearts 04:06
3. Run a Mile 05:16
4. Die Hard 06:20
5. Ready for the Night 04:58
6. For a Moment 05:11
7. Gates of Heaven 04:21
8. Hard Life 06:25
9. Friend of Fortune 03:46
10. Destination 04:17
11. So Close to Love 04:39
12. En La Linea De Fuego 01:17
13. In the Line of Fire 04:53
14. Polarity (Original Mix) 04:42
15. Helloise 04:33
16. See Tomorrow 03:32
17. Mystery Eyes 02:56
18. Reprise 0:45

"Куй"
REM GENRE Metal
REM DATE 1985
REM DISCID 01120712
REM COMMENT "ExactAudioCopy v0.99pb5"
PERFORMER "Helloise"
TITLE "Cosmogony [CDP 1035 DD]"
FILE "Helloise - Cosmogony [CDP 1035 DD].flac" WAVE
TRACK 01 AUDIO
TITLE "Cosmogony"
PERFORMER "Helloise"
INDEX 00 00:00:00
INDEX 01 00:00:32
TRACK 02 AUDIO
TITLE "Broken Hearts"
PERFORMER "Helloise"
INDEX 00 04:43:15
INDEX 01 04:44:20
TRACK 03 AUDIO
TITLE "Run A Mile"
PERFORMER "Helloise"
INDEX 00 08:50:10
INDEX 01 08:51:07
TRACK 04 AUDIO
TITLE "Die Hard"
PERFORMER "Helloise"
INDEX 00 14:06:72
INDEX 01 14:07:70
TRACK 05 AUDIO
TITLE "Ready For The Night"
PERFORMER "Helloise"
INDEX 00 20:27:60
INDEX 01 20:28:57
TRACK 06 AUDIO
TITLE "For A Moment"
PERFORMER "Helloise"
INDEX 00 25:27:10
INDEX 01 25:28:07
TRACK 07 AUDIO
TITLE "Gates Of Heaven"
PERFORMER "Helloise"
INDEX 01 30:39:00
TRACK 08 AUDIO
TITLE "Hard Life"
PERFORMER "Helloise"
INDEX 00 34:59:70
INDEX 01 35:00:70
TRACK 09 AUDIO
TITLE "Friend Of Fortune"
PERFORMER "Helloise"
INDEX 00 41:25:47
INDEX 01 41:26:45
TRACK 10 AUDIO
TITLE "Destination"
PERFORMER "Helloise"
INDEX 00 45:13:05
INDEX 01 45:14:07
TRACK 11 AUDIO
TITLE "So Close To Love"
PERFORMER "Helloise"
INDEX 00 49:31:02
INDEX 01 49:32:07
TRACK 12 AUDIO
TITLE "En La Linea De Fuego"
PERFORMER "Helloise"
INDEX 00 54:11:17
INDEX 01 54:12:20
TRACK 13 AUDIO
TITLE "In The Line Of Fire"
PERFORMER "Helloise"
INDEX 01 55:29:20
TRACK 14 AUDIO
TITLE "Polarity"
PERFORMER "Helloise"
INDEX 00 60:22:57
INDEX 01 60:23:57
TRACK 15 AUDIO
TITLE "Helloise"
PERFORMER "Helloise"
INDEX 00 65:05:47
INDEX 01 65:06:45
TRACK 16 AUDIO
TITLE "See Tomorrow"
PERFORMER "Helloise"
INDEX 00 69:39:25
INDEX 01 69:40:20
TRACK 17 AUDIO
TITLE "Mystery Eyes"
PERFORMER "Helloise"
INDEX 00 73:12:30
INDEX 01 73:12:32
TRACK 18 AUDIO
TITLE "Reprise"
PERFORMER "Helloise"
INDEX 00 76:08:67
INDEX 01 76:09:70
INDEX 02 76:45:25


"Лог"
Exact Audio Copy V0.99 prebeta 5 from 4. May 2009

EAC extraction logfile from 25. March 2010, 13:24

Helloise / Cosmogony [CDP 1035 DD]

Used drive : ASUS DRW-2014S1T Adapter: 1 ID: 1

Read mode : Secure
Utilize accurate stream : Yes
Defeat audio cache : Yes
Make use of C2 pointers : No

Read offset correction : 6
Overread into Lead-In and Lead-Out : No
Fill up missing offset samples with silence : Yes
Delete leading and trailing silent blocks : No
Null samples used in CRC calculations : Yes
Used interface : Installed external ASPI interface

Used output format : User Defined Encoder
Selected bitrate : 128 kBit/s
Quality : High
Add ID3 tag : No
Command line compressor : C:\Program Files\Exact Audio Copy\Flac\flac.exe
Additional command line options : -8 -V -T "artist=%a" -T "title=%t" -T "album=%g" -T "date=%y" -T "tracknumber=%n" -T "genre=%m" -T "comment=EAC 0.9beta4 / FLAC 1.1.0 q6" %s


TOC of the extracted CD

Track | Start | Length | Start sector | End sector
---------------------------------------------------------
1 | 0:00.32 | 4:43.63 | 32 | 21319
2 | 4:44.20 | 4:06.62 | 21320 | 39831
3 | 8:51.07 | 5:16.63 | 39832 | 63594
4 | 14:07.70 | 6:20.62 | 63595 | 92156
5 | 20:28.57 | 4:59.25 | 92157 | 114606
6 | 25:28.07 | 5:10.68 | 114607 | 137924
7 | 30:39.00 | 4:21.70 | 137925 | 157569
8 | 35:00.70 | 6:25.50 | 157570 | 186494
9 | 41:26.45 | 3:47.37 | 186495 | 203556
10 | 45:14.07 | 4:18.00 | 203557 | 222906
11 | 49:32.07 | 4:40.13 | 222907 | 243919
12 | 54:12.20 | 1:17.00 | 243920 | 249694
13 | 55:29.20 | 4:54.37 | 249695 | 271781
14 | 60:23.57 | 4:42.63 | 271782 | 292994
15 | 65:06.45 | 4:33.50 | 292995 | 313519
16 | 69:40.20 | 3:32.12 | 313520 | 329431
17 | 73:12.32 | 2:57.38 | 329432 | 342744
18 | 76:09.70 | 0:45.05 | 342745 | 346124


Range status and errors

Selected range

Filename Y:\Музыка\Helloise\1985 Cosmogony\Helloise - Cosmogony [CDP 1035 DD].wav

Peak level 99.2 %
Range quality 100.0 %
Copy CRC F4CF785C
Copy OK

No errors occurred

End of status report


Состав:
Stan Verbraak: Vocals
Ernst Van EE: Drums
Ben Blaauw: Guitars
Arjan Boogerds: Guitars, Backing Vocals
Marchell Remeeus: Bass
Robert-Jan Stips: Keyboards (3 track)
Ron Bird: Radio Voice (7 track)

Megaupload
Фото

_________________
Витасу до Даймонда как Алсу до Руссоса | При переразмещении - спрашивать разрешение!!


Top
 Profile  
 
 
PostPosted: 08 Sep 2016 
Хиппей (support team)
User avatar
Joined: 30 Jul 2007
Posts: 105067
Lоcаtion: Киев (Kyiv, UA)
Age: 45
Name: Andrey
Erik Peralta wrote:
San Juan de Lurigancho, Huascar,




Nice City :ok:

_________________


Top
 Profile E-mail  
 
 
PostPosted: 08 Sep 2016 
Хиппей (support team)
User avatar
Joined: 30 Jul 2007
Posts: 105067
Lоcаtion: Киев (Kyiv, UA)
Age: 45
Name: Andrey
Слушаю альбом...
По ходу, это бруллянт :meloman: Жаль, ему бы тяжести ещё немного, чуть паверности, и была бы ваще бонба-альбом :dance:

Пока же наслаждаюсь тем, что назаписывали музыканты.
Оценку точную уже завтра-послезавтра дам. Но не ниже 7 точно будет.

_________________


Top
 Profile E-mail  
 
 
PostPosted: 08 Sep 2016 
Хиппей (support team)
User avatar
Joined: 30 Jul 2007
Posts: 105067
Lоcаtion: Киев (Kyiv, UA)
Age: 45
Name: Andrey
Едрить, какие же хорошие мелодии на альбоме и ваще песни. Но до чего же откровенно попсовые :esel: :esel: :esel:
Хочется вернуться на минуту в 80-е, к уборщице школьной, баб Гале. Отобрать у неё ту вонючую тряпку, которая половая и по мордасам всем музыкантам. поводить, чтоб играли хотя бы так, как они это делают в конце песни "Die Hard" :diablo: :diablo: :diablo:

7/10

зы. к сожалению, никуды в топы альбом не забираю :cry:

_________________


Top
 Profile E-mail  
 
 
PostPosted: 08 Sep 2016 
Old Time Rock`n`Roll
User avatar
Joined: 23 Jun 2008
Posts: 3342
Lоcаtion: г.Ульяновск
Age: 39
Name: Константин
Лучший диск группы, песни на следующем гораздо слабее.
Чистая паверность ему нахрен не нужна, он и так чертовски хорош как мелодик традишнл хэви, на уровне Pretty Maids-87.


Top
 Profile  
 
 
PostPosted: 08 Sep 2016 
Хиппей (support team)
User avatar
Joined: 30 Jul 2007
Posts: 105067
Lоcаtion: Киев (Kyiv, UA)
Age: 45
Name: Andrey
Прэтти Мэйдс не очень пока помню, но звук мягок здесь (крома половины песни Дай Хард).

Хотя, я вона обожаю Леппад-87-й и ничо. Но здесь облом какой-то получается. Группа местами звучит очень мощно, но сам саунд при этом попсовый и хочется драйва, а он.. уходит :cry:

_________________


Top
 Profile E-mail  
 
 
PostPosted: 08 Sep 2016 
Хиппей (support team)
User avatar
Joined: 30 Jul 2007
Posts: 105067
Lоcаtion: Киев (Kyiv, UA)
Age: 45
Name: Andrey
Эх, дожал я сам себя :cry: :esel: Забираю всё ж альбом в топ :( :lob: :lob: :lob: http://www.last.fm/ru/user/Klausader

_________________


Top
 Profile E-mail  
 
 
PostPosted: 08 Sep 2016 
Old Time Rock`n`Roll
User avatar
Joined: 23 Jun 2008
Posts: 3342
Lоcаtion: г.Ульяновск
Age: 39
Name: Константин
Еще бы не забрать)
Такие качественные и проработанные композиции :lob:

viewtopic.php?f=79&t=10449


Top
 Profile  
 
 
PostPosted: 09 Sep 2016 
Хиппей (support team)
User avatar
Joined: 30 Jul 2007
Posts: 105067
Lоcаtion: Киев (Kyiv, UA)
Age: 45
Name: Andrey
Красота :thanx:

А говорят, что я часто не замечаю и не слышу очевидностей :kro:

_________________


Top
 Profile E-mail  
 
Display posts from previous:  Sort by  
Post new topic Reply to topic  [ 28 posts ]  Go to page Previous  1, 2

All times are UTC + 3 hours


Who is online

Users browsing this forum: No registered users and 2 guests


You cannot post new topics in this forum
You cannot reply to topics in this forum
You cannot edit your posts in this forum
You cannot delete your posts in this forum
You cannot post attachments in this forum

Search for:
Яндекс.Метрика
Powered by phpBB © 2000, 2002, 2005, 2007 phpBB Group