\m/ 80's metal \m/

Информационно-аналитический форум "80 см пыли" (In Search We Trust) "У нас никто никуда не спешит"
Железнодорожная биржа - RailAgent
It is currently 24 May 2018

All times are UTC + 3 hours

Spoiler
Chat - temporary registration for foreign users (please leave your application here)







Post new topic Reply to topic  [ 1 post ] 
Author Message
 
PostPosted: 18 Mar 2010 
Old Time Rock`n`Roll
User avatar
Joined: 23 Jun 2008
Posts: 3335
Lоcаtion: г.Ульяновск
Age: 39
Name: Константин
Hanoi Rocks – Two Steps From The Move (1984)

Image

Year: 1984
Style: Glam/Sleaze,Hard Rock
Country: Finland
Format: FLAC + log + cue + scans & mp3-320
Size: 269 Mb + 95 Mb

Tracklist
01. Up Around The Bend (3:09)
02. High School (3:54)
03. I Can't Get It (4:15)
04. Underwater World (5:19)
05. Don't You Ever Leave Me (4:06)
06. Million Miles Away (4:50)
07. The Boulevard Of Broken Dreams (4:05)
08. Boiler (Me Boiler 'N' Me) (4:25)
09. Futurama (3:09)
10. Cutting Corners (4:18)

TPT – 41:34

Line-Up
Andy McCoy - Lead Guitar, Vocals
Michael Monroe - Lead Vocals, Sax
Nasty Suicide - Guitars, Vocals
Razzle - Drums, Vocals
Sam Yaffa - Bass, Vocals

Album Credits:
Produced: Bob Ezrin
Produced: Bob Ezrin/David Tickle # 1
Mastered: Greg Calbi

Additional Players:
Bob Ezrin - Keyboards, Percussion, Vocals

Chart Position:
UK # 28

Charting Singles:
Up Around The Bend UK # 61

Log
Exact Audio Copy V0.99 prebeta 4 from 23. January 2008

EAC extraction logfile from 1. January 2009, 15:43

Hanoi Rocks / Two Steps From The Move

Used drive : PIONEER DVD-RW DVR-215 Adapter: 2 ID: 1

Read mode : Secure
Utilize accurate stream : Yes
Defeat audio cache : Yes
Make use of C2 pointers : No

Read offset correction : 48
Overread into Lead-In and Lead-Out : No
Fill up missing offset samples with silence : Yes
Delete leading and trailing silent blocks : No
Null samples used in CRC calculations : Yes
Used interface : Installed external ASPI interface

Used output format : User Defined Encoder
Selected bitrate : 1024 kBit/s
Quality : High
Add ID3 tag : No
Command line compressor : G:\wavpack\wavpack.exe
Additional command line options : -w "Artist=%a" -w "Album=%g" -w "Year=%y" -w "Genre=%m" -hhmt %s %d


TOC of the extracted CD

Track | Start | Length | Start sector | End sector
---------------------------------------------------------
1 | 0:00.00 | 3:09.22 | 0 | 14196
2 | 3:09.22 | 3:54.25 | 14197 | 31771
3 | 7:03.47 | 4:15.20 | 31772 | 50916
4 | 11:18.67 | 5:19.70 | 50917 | 74911
5 | 16:38.62 | 4:06.25 | 74912 | 93386
6 | 20:45.12 | 4:50.33 | 93387 | 115169
7 | 25:35.45 | 4:05.52 | 115170 | 133596
8 | 29:41.22 | 4:25.03 | 133597 | 153474
9 | 34:06.25 | 3:09.42 | 153475 | 167691
10 | 37:15.67 | 4:18.15 | 167692 | 187056


Range status and errors

Selected range

Filename M:\AudioR.I.P\Hanoi Rocks - Two Steps From The Move.wav

Peak level 100.0 %
Range quality 100.0 %
Test CRC E1A0BA63
Copy CRC E1A0BA63
Copy OK

No errors occurred


AccurateRip summary

Track 1 not present in database
Track 2 not present in database
Track 3 not present in database
Track 4 not present in database
Track 5 not present in database
Track 6 not present in database
Track 7 not present in database
Track 8 not present in database
Track 9 not present in database
Track 10 not present in database

None of the tracks are present in the AccurateRip database


Cue
PERFORMER "Hanoi Rocks"
TITLE "Two Steps From The Move (1984)"
FILE "Hanoi Rocks - Two Steps From The Move (1984).wav" WAVE
TRACK 01 AUDIO
TITLE "Up Around The Bend"
INDEX 01 00:00:00
TRACK 02 AUDIO
TITLE "High School"
INDEX 01 03:09:22
TRACK 03 AUDIO
TITLE "I Cant Get It"
INDEX 01 07:03:42
TRACK 04 AUDIO
TITLE "Underwater World"
INDEX 01 11:18:60
TRACK 05 AUDIO
TITLE "Don't You Ever Leave Me"
INDEX 01 16:38:62
TRACK 06 AUDIO
TITLE "Million Miles Away"
INDEX 01 20:46:42
TRACK 07 AUDIO
TITLE "Boulevard Of Broken Dreams"
INDEX 01 25:37:17
TRACK 08 AUDIO
TITLE "Boiler (Me Boiler 'N' Me)"
INDEX 01 29:43:00
TRACK 09 AUDIO
TITLE "Futurama"
INDEX 01 34:08:37
TRACK 10 AUDIO
TITLE "Cutting Corners"
INDEX 01 37:18:65


FLAC
narod-FLAC
megaupload-FLAC

mp3-320
megaupload-320

Релиз с HQShare, автор рипа – stupidwhiteman. Сканы надерганы из сети.

5-й студийный альбом финнов с заметным американским привкусом, что неудивительно, ибо спродюссировал альбом знаменитый Боб Эзрин (Alice Cooper, Kiss, Lee Aaron, Bonham)

Image


Top
 Profile  
 
Display posts from previous:  Sort by  
Post new topic Reply to topic  [ 1 post ] 

All times are UTC + 3 hours


Who is online

Users browsing this forum: No registered users and 1 guest


You cannot post new topics in this forum
You cannot reply to topics in this forum
You cannot edit your posts in this forum
You cannot delete your posts in this forum
You cannot post attachments in this forum

Search for:
Яндекс.Метрика
Powered by phpBB © 2000, 2002, 2005, 2007 phpBB Group