\m/ 80's metal \m/

Информационно-аналитический форум "80 см пыли" (In Search We Trust) "У нас никто никуда не спешит"
Железнодорожная биржа - RailAgent
It is currently 22 May 2018

All times are UTC + 3 hours

Spoiler
Chat - temporary registration for foreign users (please leave your application here)







Post new topic Reply to topic  [ 20 posts ] 
Author Message
 
PostPosted: 13 Mar 2010 
Работнечег
User avatar
Joined: 28 Aug 2007
Posts: 5264
Lоcаtion: г. Москва
Age: 29
Name: Дима
Image

Band: Headshot
Album: Emotional Overload
Label: Gutter Records
Genre: Thrash Metal
Country: Germany
Format: Flac + Log + Cue + Covers
Size: 416 Mb

Line-Up:
Matze Grün - Bass (Protector, Square Waves, Ingrain)
Moritz Hoffmeister - Drums
Andi Bruer - Vocals
Olaf Danneberg - Guitar (Deny the Urge)


Tracklist:
1. Emotional Overload 04:23
2. Leave the Past Behind 03:13
3. Down by Law 04:01
4. The Prophecy 05:05
5. Sudden Death 01:47
6. Desire 05:38
7. In My Mind 05:18
8. Silent Cry 03:15
9. Rotten to the Core 04:52
10. Deathzone 03:03
11. Shades of Grey 08:40
Total playing time 49:15

Spectrum
Image


LOG
Exact Audio Copy V0.99 prebeta 5 from 4. May 2009

Отчёт EAC об извлечении, выполненном 23. марта 2010, 14:19

Headshot / Emotional Overload

Дисковод: PIONEER DVD-RW DVR-116D Adapter: 0 ID: 0

Режим чтения : Достоверность
Использование точного потока : Да
Отключение кэша аудио : Да
Использование указателей C2 : Нет

Коррекция смещения при чтении : 96
Способность читать области Lead-in и Lead-out : Нет
Заполнение пропущенных сэмплов тишиной : Да
Удаление блоков с тишиной в начале и конце : Нет
При вычислениях CRC использовались нулевые сэмплы : Да
Интерфейс : Встроенный Win32-интерфейс для Win NT/2000

Выходной формат : Пользовательский кодировщик
Выбранный битрейт : 32 kBit/s
Качество : Высокий
Добавление ID3-тэга : Нет
Утилита сжатия : C:\Program Files\Exact Audio Copy\Flac\flac.exe
Дополнительные параметры : -6 -V %s


TOC извлечённого CD

Трек | Старт | Длительность | Начальный сектор | Конечный сектор
---------------------------------------------------------------------
1 | 0:00.00 | 4:24.05 | 0 | 19804
2 | 4:24.05 | 3:14.39 | 19805 | 34393
3 | 7:38.44 | 4:03.51 | 34394 | 52669
4 | 11:42.20 | 5:07.41 | 52670 | 75735
5 | 16:49.61 | 1:47.36 | 75736 | 83796
6 | 18:37.22 | 5:40.57 | 83797 | 109353
7 | 24:18.04 | 5:20.73 | 109354 | 133426
8 | 29:39.02 | 3:15.71 | 133427 | 148122
9 | 32:54.73 | 4:54.70 | 148123 | 170242
10 | 37:49.68 | 3:04.35 | 170243 | 184077
11 | 40:54.28 | 18:18.16 | 184078 | 266443


Характеристики диапазона извлечения и сообщения об ошибках

Выбранный диапазон

Имя файла D:\Музыка\Lossless\Headshot - Emotional Overload\Headshot - Emotional Overload.wav

Пиковый уровень 99.8 %
Качество диапазона 100.0 %
CRC копии AF29DCF4
Копирование... OK

Ошибок не произошло

Конец отчёта


CUE
REM GENRE "Thrash Metal"
REM DATE 1999
REM DISCID 840DE00B
REM COMMENT "ExactAudioCopy v0.99pb5"
PERFORMER "Headshot"
TITLE "Emotional Overload"
FILE "Headshot - Emotional Overload.flac" WAVE
TRACK 01 AUDIO
TITLE "Emotional Overload"
PERFORMER "Headshot"
INDEX 01 00:00:00
TRACK 02 AUDIO
TITLE "Leave The Past Behind"
PERFORMER "Headshot"
INDEX 00 04:24:01
INDEX 01 04:24:05
TRACK 03 AUDIO
TITLE "Down By Law"
PERFORMER "Headshot"
INDEX 00 07:38:21
INDEX 01 07:38:44
TRACK 04 AUDIO
TITLE "The Prophecy"
PERFORMER "Headshot"
INDEX 00 11:40:50
INDEX 01 11:42:20
TRACK 05 AUDIO
TITLE "Sudden Death"
PERFORMER "Headshot"
INDEX 00 16:48:16
INDEX 01 16:49:61
TRACK 06 AUDIO
TITLE "Desire"
PERFORMER "Headshot"
INDEX 01 18:37:22
TRACK 07 AUDIO
TITLE "In My Mind"
PERFORMER "Headshot"
INDEX 00 24:16:34
INDEX 01 24:18:04
TRACK 08 AUDIO
TITLE "Silent Cry"
PERFORMER "Headshot"
INDEX 00 29:37:32
INDEX 01 29:39:02
TRACK 09 AUDIO
TITLE "Rotten To The Core"
PERFORMER "Headshot"
INDEX 00 32:54:48
INDEX 01 32:54:73
TRACK 10 AUDIO
TITLE "Deathzone"
PERFORMER "Headshot"
INDEX 00 37:48:23
INDEX 01 37:49:68
TRACK 11 AUDIO
TITLE "Shades Of Grey"
PERFORMER "Headshot"
INDEX 00 40:54:03
INDEX 01 40:54:28


Narod.ru

Уже не помню как называется темка, но... в песне Down By Law отчётливо слышится как вокалист утробным голосом поёт "Долбаёб!" :crazy:


Last edited by church on 29 Mar 2010, edited 1 time in total.

Top
 Profile E-mail  
 
 
PostPosted: 13 Mar 2010 
труъ антисионист
User avatar
Joined: 01 Aug 2007
Posts: 4541
Lоcаtion: Откуда и большинство из нас
Age: 37
Name: Дядя Вова
Люблю песни с русскими текстами :crazy:

_________________
Image
Image


Top
 Profile  
 
 
PostPosted: 13 Mar 2010 
Хиппей (support team)
User avatar
Joined: 30 Jul 2007
Posts: 103511
Lоcаtion: Киев (Kyiv, UA)
Age: 44
Name: Andrey
Спасибо, Дим! :thanx:

_________________


Top
 Profile E-mail  
 
 
PostPosted: 15 Mar 2010 
А может смените мне статус?..
User avatar
Joined: 17 Jan 2008
Posts: 842
Lоcаtion: Пенза
Age: 40
Name: Денис
Спасибо...Что то не препомню таких...Заценим :true:


Top
 Profile  
 
 
PostPosted: 18 Mar 2010 
Труъ
User avatar
Joined: 15 Dec 2008
Posts: 131
Lоcаtion: Донбасс
Age: 45
Name: Евгений
Дима, Спасибо! :thanx: У них последний: As Above, So Below - самый зачётный...этот тоже - неплохой.


Top
 Profile  
 
 
PostPosted: 18 Mar 2010 
Работнечег
User avatar
Joined: 28 Aug 2007
Posts: 5264
Lоcаtion: г. Москва
Age: 29
Name: Дима
Мне последний тож понравился! А первый и третий я не слушал ещё, но их на дисках очень сложно найти в любом случае...


Top
 Profile E-mail  
 
 
PostPosted: 19 Mar 2010 
Прокъмитолист
User avatar
Joined: 12 Aug 2007
Posts: 6383
Lоcаtion: Санктъ-Петербуркъ
Age: 50
Name: Олекъ
Дим, спасибо! и я забрал :thanx:

_________________
прокъметол - это музыко, от которово есть прок (ы)


Top
 Profile  
 
 
PostPosted: 19 Mar 2010 
Работнечег
User avatar
Joined: 28 Aug 2007
Posts: 5264
Lоcаtion: г. Москва
Age: 29
Name: Дима
Не делай этого :crazy:
Здесь тоже вместо смещения при чтении выставлено комбинированное смещение.Так что Headshot и Lust переделываю. :(


Top
 Profile E-mail  
 
 
PostPosted: 19 Mar 2010 
Прокъмитолист
User avatar
Joined: 12 Aug 2007
Posts: 6383
Lоcаtion: Санктъ-Петербуркъ
Age: 50
Name: Олекъ
поздняк :crazy:
ну, я ради правильного смещения перекачивать не буду - проще куетулз заюзать. но на будущее, конечно, настрой ЕАК правильно ;)

_________________
прокъметол - это музыко, от которово есть прок (ы)


Top
 Profile  
 
 
PostPosted: 19 Mar 2010 
Работнечег
User avatar
Joined: 28 Aug 2007
Posts: 5264
Lоcаtion: г. Москва
Age: 29
Name: Дима
Да он правильно настроен, просто я когда галочку снимал с AccurateRip случайно видимо переключил с использования смещения при чтении на использование комбинированного смещения.


Top
 Profile E-mail  
 
 
PostPosted: 29 Mar 2010 
Работнечег
User avatar
Joined: 28 Aug 2007
Posts: 5264
Lоcаtion: г. Москва
Age: 29
Name: Дима
Перезалил с правильным смещением.Смотрим первый пост!


Top
 Profile E-mail  
 
 
PostPosted: 02 Apr 2010 
Труъ
User avatar
Joined: 05 Oct 2008
Posts: 194
Lоcаtion: Saint Petersburg
Age: 44
Name: Jesse
Благодарствую! Пожалуй тоже заберу :thanx:


Top
 Profile  
 
 
PostPosted: 16 Aug 2011 
Генеральный thrasher
User avatar
Joined: 03 Oct 2008
Posts: 3394
Lоcаtion: Ханты-Мансийский АО
Age: 43
Name: Сергей
Други,что-то я не заметил эту тему раньше.Ссылка дохлая.Перезалейте кто-нибудь!


Top
 Profile  
 
 
PostPosted: 16 Aug 2011 
Генеральный thrasher
User avatar
Joined: 03 Oct 2008
Posts: 3394
Lоcаtion: Ханты-Мансийский АО
Age: 43
Name: Сергей
Просьба отменяется...Забрал с Рутрэкера.


Top
 Profile  
 
 
PostPosted: 16 Aug 2011 
metallpaparazzy
User avatar
Joined: 20 Dec 2009
Posts: 674
Lоcаtion: Днепропетровск
Age: 43
Name: Геннадий
о, судя по последнему Synchronicity (2011) клевая банда! :true: бомбезный альбум!


Top
 Profile E-mail  
 
 
PostPosted: 16 Aug 2011 
Работнечег
User avatar
Joined: 28 Aug 2007
Posts: 5264
Lоcаtion: г. Москва
Age: 29
Name: Дима
metallroll wrote:
о, судя по последнему Synchronicity (2011) клевая банда! :true: бомбезный альбум!

Надо послушать, мне и предпоследний понравился очень)
P.S. Серег, альбом завтра перезалью)


Top
 Profile E-mail  
 
 
PostPosted: 18 Aug 2011 
Работнечег
User avatar
Joined: 28 Aug 2007
Posts: 5264
Lоcаtion: г. Москва
Age: 29
Name: Дима
чего-то я проморгал сообщение Сереги :oops: Вообщем реапнул, в первом посте живая ссылка :dance:


Top
 Profile E-mail  
 
 
PostPosted: 18 Aug 2011 
ТрэшЭрос
User avatar
Joined: 18 Jul 2011
Posts: 2296
Lоcаtion: Гулькевичи
Age: 43
Name: Александр
:thanx: за жизненную музню! :true: :true: :true:

_________________
Thrash no trash!!!


Top
 Profile E-mail  
 
 
PostPosted: 19 Aug 2011 
Хиппей (support team)
User avatar
Joined: 30 Jul 2007
Posts: 103511
Lоcаtion: Киев (Kyiv, UA)
Age: 44
Name: Andrey
:thanx:
mirror: MultiUp l Narod

_________________


Top
 Profile E-mail  
 
 
PostPosted: 20 Aug 2011 
Генеральный thrasher
User avatar
Joined: 03 Oct 2008
Posts: 3394
Lоcаtion: Ханты-Мансийский АО
Age: 43
Name: Сергей
Альбом действительно отличный!В любом случае спасибо,Димка!


Top
 Profile  
 
Display posts from previous:  Sort by  
Post new topic Reply to topic  [ 20 posts ] 

All times are UTC + 3 hours


Who is online

Users browsing this forum: No registered users and 1 guest


You cannot post new topics in this forum
You cannot reply to topics in this forum
You cannot edit your posts in this forum
You cannot delete your posts in this forum
You cannot post attachments in this forum

Search for:
Яндекс.Метрика
Powered by phpBB © 2000, 2002, 2005, 2007 phpBB Group