\m/ 80's metal \m/

Информационно-аналитический форум "80 см пыли" (In Search We Trust) "У нас никто никуда не спешит"
Железнодорожная биржа - RailAgent
It is currently 20 Jul 2018

All times are UTC + 3 hours

Spoiler
Chat - temporary registration for foreign users (please leave your application here)







Post new topic Reply to topic  [ 5 posts ] 
Author Message
 
PostPosted: 13 Mar 2010 
Работнечег
User avatar
Joined: 28 Aug 2007
Posts: 5383
Lоcаtion: г. Москва
Age: 29
Name: Дима
Image

Band: Hellish Crossfire
Album: Slaves Of The Burning Pentagram
Label: I Hate Records
Genre: Thrash Metal
Country: Germany
Format: Flac + Log + Cue + Covers/ Mp3@320 + Covers
Size: 304 Mb/101 Mb

Line-Up:
Iron Tyrant (Thomas Werner) - Vocals (Drums, 2002-2003) (Delirium Tremens (Deu), Old (Deu))
Iron Incubus (Christian Wachter) - Guitar (Gardens of Gehenna, Anael)
Sick (Don Promillo/Siggi) - Bass (Profanation)
Evil Possessor (Patrick Tauch) - Drums (Excoriate (Deu))


Tracklist:
1. Intro 00:31
2. Conquerors of Black Souls 04:45
3. Eternal Tyranny 03:52
4. Desecrate / Glorify the Sin 06:10
5. Demonic Sacrifice 05:06
6. Shadowcurse 06:57
7. Claw of the Reaper 05:27
8. Hallowed in Fire 06:01
Total playing time 38:49

LOG
Exact Audio Copy V0.99 prebeta 5 from 4. May 2009

EAC extraction logfile from 10. February 2010, 18:51

Hellish Crossfire / Slaves Of The Burning Pentagram

Used drive : PIONEER DVD-RW DVR-116D Adapter: 0 ID: 0

Read mode : Secure
Utilize accurate stream : Yes
Defeat audio cache : Yes
Make use of C2 pointers : No

Read offset correction : 96
Overread into Lead-In and Lead-Out : No
Fill up missing offset samples with silence : Yes
Delete leading and trailing silent blocks : No
Null samples used in CRC calculations : Yes
Used interface : Native Win32 interface for Win NT & 2000

Used output format : User Defined Encoder
Selected bitrate : 32 kBit/s
Quality : High
Add ID3 tag : No
Command line compressor : C:\Program Files\Exact Audio Copy\Flac\flac.exe
Additional command line options : -6 -V %s


TOC of the extracted CD

Track | Start | Length | Start sector | End sector
---------------------------------------------------------
1 | 0:00.00 | 5:18.63 | 0 | 23912
2 | 5:18.63 | 3:53.22 | 23913 | 41409
3 | 9:12.10 | 6:11.09 | 41410 | 69243
4 | 15:23.19 | 5:06.00 | 69244 | 92193
5 | 20:29.19 | 6:58.30 | 92194 | 123573
6 | 27:27.49 | 5:27.23 | 123574 | 148121
7 | 32:54.72 | 6:01.31 | 148122 | 175227


Range status and errors

Selected range

Filename D:\Музыка\Lossless\Hellish Crossfire - Slaves Of The Burning Pentagram.wav

Peak level 99.8 %
Range quality 100.0 %
Copy CRC 860D399A
Copy OK

No errors occurred


AccurateRip summary

Track 1 accurately ripped (confidence 2) [DBBF4076]
Track 2 accurately ripped (confidence 2) [560AF4AA]
Track 3 accurately ripped (confidence 2) [21B7F7F9]
Track 4 accurately ripped (confidence 2) [1CBB93DB]
Track 5 accurately ripped (confidence 2) [82FAE52F]
Track 6 accurately ripped (confidence 2) [4E9DC967]
Track 7 accurately ripped (confidence 2) [48A7FD69]

All tracks accurately ripped

End of status report


Spectrum
Image


CUE
REM GENRE Metal
REM DATE 2006
REM DISCID 57092007
REM COMMENT "ExactAudioCopy v0.99pb5"
PERFORMER "Hellish Crossfire"
TITLE "Slaves Of The Burning Pentagram"
FILE "Hellish Crossfire - Slaves Of The Burning Pentagram.flac" WAVE
TRACK 01 AUDIO
TITLE "Conquerors Of Black Souls"
PERFORMER "Hellish Crossfire"
FLAGS DCP
INDEX 01 00:00:00
TRACK 02 AUDIO
TITLE "Eternal Tyranny"
PERFORMER "Hellish Crossfire"
FLAGS DCP
INDEX 01 05:18:63
TRACK 03 AUDIO
TITLE "Desecrate - Glorify The Sin"
PERFORMER "Hellish Crossfire"
FLAGS DCP
INDEX 01 09:12:10
TRACK 04 AUDIO
TITLE "Demonic Sacrifice"
PERFORMER "Hellish Crossfire"
FLAGS DCP
INDEX 01 15:23:19
TRACK 05 AUDIO
TITLE "Shadowcurse"
PERFORMER "Hellish Crossfire"
FLAGS DCP
INDEX 01 20:29:19
TRACK 06 AUDIO
TITLE "Claw Of The Reaper"
PERFORMER "Hellish Crossfire"
FLAGS DCP
INDEX 01 27:27:49
TRACK 07 AUDIO
TITLE "Hallowed In Fire"
PERFORMER "Hellish Crossfire"
FLAGS DCP
INDEX 01 32:54:72


FLAC

MP3@320

Мастхэв для всех любителей трэша :true:


Top
 Profile E-mail  
 
 
PostPosted: 13 Mar 2010 
Power Metal Maniac
User avatar
Joined: 09 Aug 2008
Posts: 6197
Lоcаtion: Москва
Age: 40
Name: Егор
:thanx:

_________________
Long Live Metal!


Top
 Profile  
 
 
PostPosted: 13 Mar 2010 
Хиппей (support team)
User avatar
Joined: 30 Jul 2007
Posts: 105153
Lоcаtion: Киев (Kyiv, UA)
Age: 45
Name: Andrey
:true: Да :true:

_________________


Top
 Profile E-mail  
 
 
PostPosted: 18 Mar 2010 
Прокъмитолист
User avatar
Joined: 12 Aug 2007
Posts: 6419
Lоcаtion: Санктъ-Петербуркъ
Age: 50
Name: Олекъ
спасибо, Дим! :true:

_________________
прокъметол - это музыко, от которово есть прок (ы)


Top
 Profile  
 
 
PostPosted: 18 Mar 2010 
Thrasher
User avatar
Joined: 07 Oct 2007
Posts: 2755
Lоcаtion: Russia, Moscow
Age: 34
Name: Drunk & Evil
Спасибо, Дим! :true: :thanx: :true:

_________________
ВОДКА, БАБЫ И БЛЮЗ / 40° till death... :bodun:
One time we saw some hookers, but when we got closer, we realised it was Mötley Crüe. ©


Top
 Profile  
 
Display posts from previous:  Sort by  
Post new topic Reply to topic  [ 5 posts ] 

All times are UTC + 3 hours


Who is online

Users browsing this forum: No registered users and 3 guests


You cannot post new topics in this forum
You cannot reply to topics in this forum
You cannot edit your posts in this forum
You cannot delete your posts in this forum
You cannot post attachments in this forum

Search for:
Яндекс.Метрика
Powered by phpBB © 2000, 2002, 2005, 2007 phpBB Group