\m/ 80's metal \m/

Информационно-аналитический форум "80 см пыли" (In Search We Trust) "У нас никто никуда не спешит"
Me For You - http://me-4u.com
It is currently 21 Nov 2018

All times are UTC + 3 hours

Spoiler
Chat - temporary registration for foreign users (please leave your application here)







Post new topic Reply to topic  [ 3 posts ] 
Author Message
 
PostPosted: 24 Feb 2010 
Работнечег
User avatar
Joined: 28 Aug 2007
Posts: 5555
Lоcаtion: г. Москва
Age: 29
Name: Дима
Image

Band: Headstone (Epitaph)
Album: Wings Of Eternity
Year: 1998
Label: Victor Entertainment, VICP-60483
Genre: Heavy Metal
Coutry: Germany
Format: Flac + Log + Cue + Covers
Size: 374 Mb

Line-Up:
Tim Benz: vocals
Martin Grimm: guitar (Mystic Prophecy)
Jürgen Steinmetz: bass (Silent Force, Sons of Seasons)
Frank Reinert: drums


Tracklist:
1. Searing Eyes 03:16
2. All for One 04:17
3. Wings of Eternity (Fighting Sons) 05:03
4. Ready to Go 03:08
5. Whisper 03:40
6. Belovers of Fidelity 04:30
7. Hole in the Sky 04:29
8. Lies 03:05
9. Rest Your Hand 03:38
10. My Favourite Things 00:31
11. Mama 02:58
12. Equality 03:58
13. Burn for Me 02:55
Total playing time 45:28

LOG
Exact Audio Copy V0.99 prebeta 5 from 4. May 2009

EAC extraction logfile from 19. February 2010, 17:43

Headstone / Wings Of Eternity

Used drive : PIONEER DVD-RW DVR-116D Adapter: 0 ID: 0

Read mode : Secure
Utilize accurate stream : Yes
Defeat audio cache : Yes
Make use of C2 pointers : No

Read offset correction : 96
Overread into Lead-In and Lead-Out : No
Fill up missing offset samples with silence : Yes
Delete leading and trailing silent blocks : No
Null samples used in CRC calculations : Yes
Used interface : Native Win32 interface for Win NT & 2000

Used output format : User Defined Encoder
Selected bitrate : 32 kBit/s
Quality : High
Add ID3 tag : No
Command line compressor : C:\Program Files\Exact Audio Copy\Flac\flac.exe
Additional command line options : -6 -V %s


TOC of the extracted CD

Track | Start | Length | Start sector | End sector
---------------------------------------------------------
1 | 0:00.37 | 3:17.37 | 37 | 14848
2 | 3:17.74 | 4:19.15 | 14849 | 34288
3 | 7:37.14 | 5:05.38 | 34289 | 57201
4 | 12:42.52 | 3:12.32 | 57202 | 71633
5 | 15:55.09 | 3:41.73 | 71634 | 88281
6 | 19:37.07 | 4:30.50 | 88282 | 108581
7 | 24:07.57 | 4:32.05 | 108582 | 128986
8 | 28:39.62 | 3:07.22 | 128987 | 143033
9 | 31:47.09 | 3:40.55 | 143034 | 159588
10 | 35:27.64 | 0:31.30 | 159589 | 161943
11 | 35:59.19 | 3:00.60 | 161944 | 175503
12 | 39:00.04 | 4:02.08 | 175504 | 193661
13 | 43:02.12 | 2:56.00 | 193662 | 206861


Range status and errors

Selected range

Filename D:\Музыка\Lossless\Headstone - Wings Of Eternity (Japan)\Headstone - Wings Of Eternity.wav

Peak level 100.0 %
Range quality 100.0 %
Copy CRC 12D5FFD0
Copy OK

No errors occurred

End of status report


CUE
REM GENRE Metal
REM DATE 1998
REM DISCID C50AC60D
REM COMMENT "ExactAudioCopy v0.99pb5"
PERFORMER "Headstone"
TITLE "Wings Of Eternity"
FILE "Headstone - Wings Of Eternity.flac" WAVE
TRACK 01 AUDIO
TITLE "Searing Eyes"
PERFORMER "Headstone"
INDEX 00 00:00:00
INDEX 01 00:00:37
TRACK 02 AUDIO
TITLE "All For One"
PERFORMER "Headstone"
INDEX 01 03:17:74
TRACK 03 AUDIO
TITLE "Wings of Eternity"
PERFORMER "Headstone"
INDEX 00 07:36:10
INDEX 01 07:37:14
TRACK 04 AUDIO
TITLE "Ready To Go"
PERFORMER "Headstone"
INDEX 00 12:40:70
INDEX 01 12:42:52
TRACK 05 AUDIO
TITLE "Whisper"
PERFORMER "Headstone"
INDEX 00 15:51:63
INDEX 01 15:55:09
TRACK 06 AUDIO
TITLE "Belovers of Fidelity"
PERFORMER "Headstone"
INDEX 00 19:35:48
INDEX 01 19:37:07
TRACK 07 AUDIO
TITLE "Hole in the Sky"
PERFORMER "Headstone"
INDEX 01 24:07:57
TRACK 08 AUDIO
TITLE "Lies"
PERFORMER "Headstone"
INDEX 00 28:37:50
INDEX 01 28:39:62
TRACK 09 AUDIO
TITLE "Rest Your Hand"
PERFORMER "Headstone"
INDEX 00 31:46:08
INDEX 01 31:47:09
TRACK 10 AUDIO
TITLE "My Favorite Things"
PERFORMER "Headstone"
INDEX 00 35:26:25
INDEX 01 35:27:64
TRACK 11 AUDIO
TITLE "Mama"
PERFORMER "Headstone"
INDEX 01 35:59:19
TRACK 12 AUDIO
TITLE "Equality"
PERFORMER "Headstone"
INDEX 00 38:57:73
INDEX 01 39:00:04
TRACK 13 AUDIO
TITLE "Burn for Me"
PERFORMER "Headstone"
INDEX 00 42:59:00
INDEX 01 43:02:12


Spectrum
Image


По мне так офигенный альбом, уже раз десять его прогнал в плеере , что со мной редко случается) У кого есть немецкая версия альбома сравните плиз относительно звука.

Narod.ru


Top
 Profile E-mail  
 
 
PostPosted: 24 Feb 2010 
Metal Collector
User avatar
Joined: 16 Nov 2008
Posts: 1230
Lоcаtion: Химки
Age: 35
Name: Андрей
Благодарю!


Top
 Profile E-mail  
 
 
PostPosted: 24 Feb 2010 
Хиппей (support team)
User avatar
Joined: 30 Jul 2007
Posts: 108243
Lоcаtion: Киев (Kyiv, UA)
Age: 45
Name: Andrey
Вот спасибо, Дим :thanx:

_________________


Top
 Profile E-mail  
 
Display posts from previous:  Sort by  
Post new topic Reply to topic  [ 3 posts ] 

All times are UTC + 3 hours


Who is online

Users browsing this forum: No registered users and 3 guests


You cannot post new topics in this forum
You cannot reply to topics in this forum
You cannot edit your posts in this forum
You cannot delete your posts in this forum
You cannot post attachments in this forum

Search for:
Яндекс.Метрика
Powered by phpBB © 2000, 2002, 2005, 2007 phpBB Group