\m/ 80's metal \m/

Информационно-аналитический форум "80 см пыли" (In Search We Trust) "У нас никто никуда не спешит"
Me For You - http://me-4u.com
It is currently 21 Sep 2018

All times are UTC + 3 hours

Spoiler
Chat - temporary registration for foreign users (please leave your application here)







Post new topic Reply to topic  [ 1 post ] 
Author Message
 
PostPosted: 13 Jan 2010 
Old Time Rock`n`Roll
User avatar
Joined: 23 Jun 2008
Posts: 3354
Lоcаtion: г.Ульяновск
Age: 40
Name: Константин
Hamlet – Peligroso (1992)

Image

Year: 1992
Style: Glam/Heavy Metal
Country: Spain
Format: APE + log + cue+booklet & mp3-320
Size: 229 Mb + 79 Mb

Tracklist
1. Voy mal - 03:32
2. Es tu Vida - 02:07
3. Peligroso - 02:22
4. En el Horizonte - 04:13
5. Dulce Amor - 02:09
6. Muerde el Polvo - 02:17
7. Rebelde - 02:11
8. Alas Negras - 02:41
9. La Ley - 03:55
10. El Cielo Empieza Arder - 03:14
11. Magia Oculta - 02:15
12. Que te Den - 02:37

TPT – 33:33

Line-Up
J. Molly - Vocals
Luis Tárraga - Guitar
Pedro Sánchez - Guitar
Augusto Hernández - Bass
Pablo Gianni – Drums

Log
EAC extraction logfile from 24. November 2006, 22:31 for CD
Hamlet / Peligroso

Used drive : LITE-ON DVDRW SHW-160H6S Adapter: 3 ID: 0
Read mode : Secure with NO C2, accurate stream, disable cache
Read offset correction : 6
Overread into Lead-In and Lead-Out : No

Used output format : C:\Archivos de programa\Exact Audio Copy\MAC.EXE (Monkey's Audio Lossless Encoder)
High Lossless Compression

Other options :
Fill up missing offset samples with silence : Yes
Delete leading and trailing silent blocks : No
Installed external ASPI interface


Range status and errors
Selected range
Filename C:\EAC APE red\Hamlet (1992) (Peligroso) APE\Hamlet - 1992.wav

Peak level 100.0 %
Range quality 100.0 %
CRC AB6E7954
Copy OK

No errors occured

End of status report


Cue
PERFORMER "Hamlet"
TITLE "Peligroso"
FILE "Hamlet - 1992.wav" WAVE
TRACK 01 AUDIO
TITLE "voy mal"
PERFORMER "Hamlet"
INDEX 00 00:00:00
INDEX 01 00:00:38
TRACK 02 AUDIO
TITLE "es tu vida"
PERFORMER "Hamlet"
INDEX 00 03:31:38
INDEX 01 03:32:38
TRACK 03 AUDIO
TITLE "peligroso"
PERFORMER "Hamlet"
INDEX 00 05:38:38
INDEX 01 05:39:38
TRACK 04 AUDIO
TITLE "en el horizonte"
PERFORMER "Hamlet"
INDEX 00 08:00:38
INDEX 01 08:01:38
TRACK 05 AUDIO
TITLE "dulce amor"
PERFORMER "Hamlet"
INDEX 00 12:13:38
INDEX 01 12:14:38
TRACK 06 AUDIO
TITLE "muerde el polvo"
PERFORMER "Hamlet"
INDEX 00 14:22:38
INDEX 01 14:23:38
TRACK 07 AUDIO
TITLE "rebelde"
PERFORMER "Hamlet"
INDEX 00 16:38:38
INDEX 01 16:40:38
TRACK 08 AUDIO
TITLE "alas negras"
PERFORMER "Hamlet"
INDEX 00 18:50:38
INDEX 01 18:51:38
TRACK 09 AUDIO
TITLE "la ley"
PERFORMER "Hamlet"
INDEX 00 21:31:38
INDEX 01 21:32:38
TRACK 10 AUDIO
TITLE "el cielo empieza a arder"
PERFORMER "Hamlet"
INDEX 00 25:26:38
INDEX 01 25:27:38
TRACK 11 AUDIO
TITLE "magia oculta"
PERFORMER "Hamlet"
INDEX 00 28:40:38
INDEX 01 28:41:38
TRACK 12 AUDIO
TITLE "que te den"
PERFORMER "Hamlet"
INDEX 00 30:55:38
INDEX 01 30:56:38

APE
megaupload-APE

mp3-320
narod-320
megaupload-320

Релиз с ММТ, автор рипа – ferroman
Cмесь тяжелого глэма начала 90-х и хэви-метала, местами отчетливо сквозит Skid Row. Вполне сносная работа, на 20%-ную рецензию на металархивах внимания можно не обращать, товарищ видимо на дух не переносит хэйр-метал, тем более в дальнейшем команда заиграла что-то совсем зубодробительное.

Image


Top
 Profile  
 
Display posts from previous:  Sort by  
Post new topic Reply to topic  [ 1 post ] 

All times are UTC + 3 hours


Who is online

Users browsing this forum: No registered users and 3 guests


You cannot post new topics in this forum
You cannot reply to topics in this forum
You cannot edit your posts in this forum
You cannot delete your posts in this forum
You cannot post attachments in this forum

Search for:
Яндекс.Метрика
Powered by phpBB © 2000, 2002, 2005, 2007 phpBB Group