\m/ 80's metal \m/

Информационно-аналитический форум "80 см пыли" (In Search We Trust) "У нас никто никуда не спешит"
Железнодорожная биржа - RailAgent
It is currently 24 May 2018

All times are UTC + 3 hours

Spoiler
Chat - temporary registration for foreign users (please leave your application here)







Post new topic Reply to topic  [ 1 post ] 
Author Message
 
PostPosted: 09 Jan 2010 
Old Time Rock`n`Roll
User avatar
Joined: 23 Jun 2008
Posts: 3335
Lоcаtion: г.Ульяновск
Age: 39
Name: Константин
Hanoi Rocks – Bangkok Shocks Saigon Shakes Hanoi Rocks (1981)

Image

Year: 1981
Style: Glam/Sleaze/Hard Rock
Country: Finland
Format: FLAC + log + cue + scans
Size: 238 Mb

Tracklist
01. Lost In The City (3:45)
02. Village Girl (3:10)
03. Stop Cryin' (3:51)
04. Tragedy (4:03)
05. Don't Never Leave Me (3:55)
06. First Timer (2:54)
07. Cheyenne (3:59)
08. 11th Street Kids (3:57)
09. Walking With My Angel (2:10)
10. Pretender (3:30)

TPT – 35:48

Line-Up
Andy McCoy - Guitar
Gyp Casino - Drums
Mike Monroe - Lead Vocals, Harp, Sax
Nasty Suicide - Guitar
Sam Yaffa – Bass

Additional Players:
Anna McCoy - Handclaps
John Galaxy Groves – Synthesizer

Album Credits:
Produced: Andy McCoy/Michael Monroe

Log
Exact Audio Copy V0.99 prebeta 4 from 23. January 2008

EAC extraction logfile from 6. December 2008, 12:13

Hanoi Rocks / Bangkok Shocks Saigon Shakes Hanoi Rocks

Used drive : PIONEER DVD-RW DVR-215 Adapter: 2 ID: 1

Read mode : Secure
Utilize accurate stream : Yes
Defeat audio cache : Yes
Make use of C2 pointers : No

Read offset correction : 48
Overread into Lead-In and Lead-Out : No
Fill up missing offset samples with silence : Yes
Delete leading and trailing silent blocks : No
Null samples used in CRC calculations : Yes
Used interface : Installed external ASPI interface

Used output format : User Defined Encoder
Selected bitrate : 1024 kBit/s
Quality : High
Add ID3 tag : No
Command line compressor : G:\wavpack\wavpack.exe
Additional command line options : -w "Artist=%a" -w "Album=%g" -w "Year=%y" -w "Genre=%m" -hhmt %s %d


TOC of the extracted CD

Track | Start | Length | Start sector | End sector
---------------------------------------------------------
1 | 0:00.00 | 4:07.12 | 0 | 18536
2 | 4:07.12 | 3:07.40 | 18537 | 32601
3 | 7:14.52 | 3:55.18 | 32602 | 50244
4 | 11:09.70 | 3:57.72 | 50245 | 68091
5 | 15:07.67 | 3:49.65 | 68092 | 85331
6 | 18:57.57 | 3:03.15 | 85332 | 99071
7 | 22:00.72 | 4:00.50 | 99072 | 117121
8 | 26:01.47 | 4:00.23 | 117122 | 135144
9 | 30:01.70 | 2:14.17 | 135145 | 145211
10 | 32:16.12 | 3:32.18 | 145212 | 161129


Range status and errors

Selected range

Filename M:\AudioR.I.P\Hanoi Rocks - Bangkok Shocks Saigon Shakes Hanoi Rocks.wav

Peak level 90.9 %
Range quality 99.9 %
Test CRC 49101E8D
Copy CRC 49101E8D
Copy OK

No errors occurred


AccurateRip summary

Track 1 cannot be verified as accurate (confidence 1) [B9BDCD1C], AccurateRip returned [892855C2]
Track 2 cannot be verified as accurate (confidence 1) [57B09DD9], AccurateRip returned [D5758C94]
Track 3 cannot be verified as accurate (confidence 1) [98B3013A], AccurateRip returned [6B57ED2A]
Track 4 cannot be verified as accurate (confidence 1) [FAC932F3], AccurateRip returned [C95E5460]
Track 5 cannot be verified as accurate (confidence 1) [57EA1999], AccurateRip returned [A4A497DD]
Track 6 cannot be verified as accurate (confidence 1) [D553BEAC], AccurateRip returned [2BC51232]
Track 7 cannot be verified as accurate (confidence 1) [3D69CCC9], AccurateRip returned [7FA768EC]
Track 8 cannot be verified as accurate (confidence 1) [48C4985B], AccurateRip returned [FF39308A]
Track 9 cannot be verified as accurate (confidence 1) [60BA0CBD], AccurateRip returned [BE2D4987]
Track 10 cannot be verified as accurate (confidence 1) [9B7D57C8], AccurateRip returned [B14753FA]

No tracks could be verified as accurate
You may have a different pressing from the one(s) in the database

End of status report


Cue
REM GENRE Rock
REM DATE 1981
REM COMMENT http://www.dduniverse.net/music
PERFORMER "Hanoi Rocks"
TITLE "Bangkok Shocks Saigon Shakes Hanoi Rocks"
FILE "Hanoi Rocks - Bangkok Shocks Saigon Shakes Hanoi Rocks.wav" WAVE
TRACK 01 AUDIO
TITLE "Tragedy"
INDEX 01 00:00:00
TRACK 02 AUDIO
TITLE "Village Girl"
INDEX 01 04:07:12
TRACK 03 AUDIO
TITLE "Stop Cryin'"
INDEX 01 07:14:52
TRACK 04 AUDIO
TITLE "Don't Never Leave Me"
INDEX 01 11:09:70
TRACK 05 AUDIO
TITLE "Lost In The City"
INDEX 01 15:07:67
TRACK 06 AUDIO
TITLE "First Timer"
INDEX 01 18:57:57
TRACK 07 AUDIO
TITLE "Cheyenne"
INDEX 01 22:00:72
TRACK 08 AUDIO
TITLE "11th Street Kids"
INDEX 01 26:01:47
TRACK 09 AUDIO
TITLE "Walking With My Angel"
INDEX 01 30:01:70
TRACK 10 AUDIO
TITLE "Pretender"
INDEX 01 32:16:12


FLAC
narod-flac

Бангкок трясет, Сайгон лихорадит, Ханой ликует! :dance:
Релиз с HQShare, автор рипа – stupidwhiteman.

Image


Top
 Profile  
 
Display posts from previous:  Sort by  
Post new topic Reply to topic  [ 1 post ] 

All times are UTC + 3 hours


Who is online

Users browsing this forum: No registered users and 1 guest


You cannot post new topics in this forum
You cannot reply to topics in this forum
You cannot edit your posts in this forum
You cannot delete your posts in this forum
You cannot post attachments in this forum

Search for:
Яндекс.Метрика
Powered by phpBB © 2000, 2002, 2005, 2007 phpBB Group