\m/ 80's metal \m/

Информационно-аналитический форум "80 см пыли" (In Search We Trust) "У нас никто никуда не спешит"
Me For You - http://me-4u.com
It is currently 21 Nov 2018

All times are UTC + 3 hours

Spoiler
Chat - temporary registration for foreign users (please leave your application here)







Post new topic Reply to topic  [ 2 posts ] 
Author Message
 
PostPosted: 28 Nov 2009 
труъ антисионист
User avatar
Joined: 01 Aug 2007
Posts: 4541
Lоcаtion: Откуда и большинство из нас
Age: 37
Name: Дядя Вова
Image

Группа: Hubi Meisel
Альбом: EmOcean.
Год: 2004
Лейбл: Irond
Стиль: Prog Metal
Страна: Germany
Формат: Ape / Log / Cue / Covers
Размер: 520 Mb


******************************************************************************

Line Up:

Hubi Meisel - Vocals
Vivien Lalu - Keyboards
Marcel Coenen - Guitars
Jorge Salan - Guitar
Bamby - Bass
Daniel Flores - Drums



Tracks:
01. Lost in the Waters of Sargasso (4:49)
02. Poseidon's Trident (5:20)
03. Nocturnal Breeze (4:23)
04. Dolphin's Wake (4:25)
05. Underwater Fears (3:34)
06. FantaSea (4:07)
07. The Souls of Atlantis (12:57)
08. Sapienta Vitae (5:51)
09. Azure Dreams (Intsrumental) (2:07)
10. Aqua Pheonix (3:42)
11. Aero Nautical (4:19)
12. EmOcean (6:15)
13. Crystal Moon (3:23)
14. Tears of an Enchanted Sea (6:07)


LOG
Exact Audio Copy V0.99 prebeta 4 from 23. January 2008

Отчёт EAC об извлечении, выполненном 26. января 2009, 15:46

Hubi Meisel / EmOcean

Дисковод: PIONEER DVD-RW DVR-216D Adapter: 1 ID: 0

Режим чтения : Достоверность
Использование точного потока : Да
Отключение кэша аудио : Да
Использование указателей C2 : Нет

Коррекция смещения при чтении : 96
Способность читать области Lead-in и Lead-out : Нет
Заполнение пропущенных сэмплов тишиной : Да
Удаление блоков с тишиной в начале и конце : Нет
При вычислениях CRC использовались нулевые сэмплы : Да
Интерфейс : Установленный внешний ASPI-интерфейс

Выходной формат : Monkey's Audio (без потерь)
Выбранный битрейт : Fast Lossless Compression
Качество : Высокий
Добавление ID3-тэга : Нет
Утилита сжатия : F:\Dist\Codecs\APE\mac.exe


TOC извлечённого CD

Трек | Старт | Длительность | Начальный сектор | Конечный сектор
---------------------------------------------------------------------
1 | 0:00.00 | 4:48.51 | 0 | 21650
2 | 4:48.51 | 5:19.63 | 21651 | 45638
3 | 10:08.39 | 4:23.23 | 45639 | 65386
4 | 14:31.62 | 4:24.56 | 65387 | 85242
5 | 18:56.43 | 3:33.53 | 85243 | 101270
6 | 22:30.21 | 4:06.74 | 101271 | 119794
7 | 26:37.20 | 12:57.30 | 119795 | 178099
8 | 39:34.50 | 5:51.30 | 178100 | 204454
9 | 45:26.05 | 2:07.06 | 204455 | 213985
10 | 47:33.11 | 3:42.36 | 213986 | 230671
11 | 51:15.47 | 4:18.68 | 230672 | 250089
12 | 55:34.40 | 6:15.10 | 250090 | 278224
13 | 61:49.50 | 3:23.25 | 278225 | 293474
14 | 65:13.00 | 6:06.43 | 293475 | 320967


Характеристики диапазона извлечения и сообщения об ошибках

Выбранный диапазон

Имя файла E:\Кинозал\Hubi Meisel - EmOcean (2004)\Hubi Meisel - EmOcean.wav

Пиковый уровень 100.0 %
Качество диапазона 100.0 %
CRC копии B363E153
Копирование... OK

Ошибок не произошло

Конец отчёта


===================================DOWNLOAD=====================================
Hubi Meisel - Em Ocean (2004).rar
http://www.megaupload.com/?d=PZ6QOZ7A

_________________
Image
Image


Top
 Profile  
 
 
PostPosted: 28 Nov 2009 
DarkSage
User avatar
Joined: 24 Sep 2009
Posts: 925
Lоcаtion: Moscow
Name: Оксана
Замечательный альбом , спасибо за напоминание..

_________________
Image,Image


Top
 Profile E-mail  
 
Display posts from previous:  Sort by  
Post new topic Reply to topic  [ 2 posts ] 

All times are UTC + 3 hours


Who is online

Users browsing this forum: No registered users and 5 guests


You cannot post new topics in this forum
You cannot reply to topics in this forum
You cannot edit your posts in this forum
You cannot delete your posts in this forum
You cannot post attachments in this forum

Search for:
Яндекс.Метрика
Powered by phpBB © 2000, 2002, 2005, 2007 phpBB Group