\m/ 80's metal \m/

Информационно-аналитический форум "80 см пыли" (In Search We Trust) "У нас никто никуда не спешит"
Железнодорожная биржа - RailAgent
It is currently 22 May 2018

All times are UTC + 3 hours

Spoiler
Chat - temporary registration for foreign users (please leave your application here)







Post new topic Reply to topic  [ 4 posts ] 
Author Message
 
PostPosted: 01 Nov 2009 
Зарегился вот...
User avatar
Joined: 31 Oct 2009
Posts: 9
Name: Вася
Image

Год: 1972
Жанр: Heavy Metal
Страна: USA
Формат: Flac(tracks), Scans, Log, Cue
Размер: 211 Mb

Треклист:
1. Mystery Rider
2. Fifteen
3. All I Need (To Have Is You)
4. Lazy Woman
5. Bells
6. Ain't Gonna Take No More
7. I'll Do It All Again
8. Promotion Man

Line-up:
Don Francisco (drums, lead vocals),
John Livingston Tunison IV (bass, vocals)
Michael "Mike" Stevens (lead guitar, vocals)

Источник: Сеть eDonkey. Вот ссылка: cсылка

Log
EAC extraction logfile from 22. April 2007, 0:54 for CD
Highway Robbery / For Love Or Money

Used drive : Optiarc DVD RW AD-7530A Adapter: 1 ID: 0
Read mode : Secure with NO C2, accurate stream, disable cache
Read offset correction : 48
Overread into Lead-In and Lead-Out : No

Used output format : Internal WAV Routines
44.100 Hz; 16 Bit; Stereo

Other options :
Fill up missing offset samples with silence : Yes
Delete leading and trailing silent blocks : No
Installed external ASPI interface


Track 1
Filename C:\Rip\01 - Mystery Rider.wav

Pre-gap length 0:00:02.00

Peak level 75.1 %
Track quality 99.9 %
Test CRC ED5F3EF9
Copy CRC ED5F3EF9
Copy OK

Track 2
Filename C:\Rip\02 - Fifteen.wav

Peak level 79.3 %
Track quality 100.0 %
Test CRC DD7861A7
Copy CRC DD7861A7
Copy OK

Track 3
Filename C:\Rip\03 - All I Need (To Have Is You).wav

Peak level 79.8 %
Track quality 100.0 %
Test CRC 3F64C34A
Copy CRC 3F64C34A
Copy OK

Track 4
Filename C:\Rip\04 - Lazy Woman.wav

Peak level 99.3 %
Track quality 100.0 %
Test CRC AE0D8E31
Copy CRC AE0D8E31
Copy OK

Track 5
Filename C:\Rip\05 - Bells.wav

Peak level 73.7 %
Track quality 100.0 %
Test CRC C85BA2D7
Copy CRC C85BA2D7
Copy OK

Track 6
Filename C:\Rip\06 - Ain't Gonna Take No More.wav

Peak level 76.1 %
Track quality 100.0 %
Test CRC 8E87A46A
Copy CRC 8E87A46A
Copy OK

Track 7
Filename C:\Rip\07 - I'll Do It All Again.wav

Peak level 72.5 %
Track quality 99.9 %
Test CRC A647AE36
Copy CRC A647AE36
Copy OK

Track 8
Filename C:\Rip\08 - Promotion Man.wav

Peak level 73.9 %
Track quality 100.0 %
Test CRC 9C16535F
Copy CRC 9C16535F
Copy OK

No errors occured


End of status report


Cue
REM GENRE "Hard Rock"
REM DATE 1972
REM DISCID 6907D708
REM COMMENT "ExactAudioCopy v0.95b4"
PERFORMER "Highway Robbery"
TITLE "For Love Or Money"
FILE "01 - Mystery Rider.flac" WAVE
TRACK 01 AUDIO
TITLE "Mystery Rider"
PERFORMER "Highway Robbery"
INDEX 01 00:00:00
FILE "02 - Fifteen.flac" WAVE
TRACK 02 AUDIO
TITLE "Fifteen"
PERFORMER "Highway Robbery"
INDEX 01 00:00:00
FILE "03 - All I Need (To Have Is You).flac" WAVE
TRACK 03 AUDIO
TITLE "All I Need (To Have Is You)"
PERFORMER "Highway Robbery"
INDEX 01 00:00:00
FILE "04 - Lazy Woman.flac" WAVE
TRACK 04 AUDIO
TITLE "Lazy Woman"
PERFORMER "Highway Robbery"
INDEX 01 00:00:00
FILE "05 - Bells.flac" WAVE
TRACK 05 AUDIO
TITLE "Bells"
PERFORMER "Highway Robbery"
INDEX 01 00:00:00
FILE "06 - Ain't Gonna Take No More.flac" WAVE
TRACK 06 AUDIO
TITLE "Ain't Gonna Take No More"
PERFORMER "Highway Robbery"
INDEX 01 00:00:00
FILE "07 - I'll Do It All Again.flac" WAVE
TRACK 07 AUDIO
TITLE "I'll Do It All Again"
PERFORMER "Highway Robbery"
INDEX 01 00:00:00
FILE "08 - Promotion Man.flac" WAVE
TRACK 08 AUDIO
TITLE "Promotion Man"
PERFORMER "Highway Robbery"
INDEX 01 00:00:00




Top
 Profile E-mail  
 
 
PostPosted: 02 Nov 2009 
Почётный металлург
User avatar
Joined: 15 Sep 2007
Posts: 4357
Lоcаtion: Хабаровск
Age: 58
Name: чуть выше
Это у тебя фамилия такая, Вася? Или просто прикололся?

Группа отличная. Но имею.

_________________
Коль будешь людей ты ослами честить,
тебе человеком меж них не прослыть!
(Саади, персидский поэт, 13в.)


Top
 Profile  
 
 
PostPosted: 04 Nov 2009 
Зарегился вот...
User avatar
Joined: 31 Oct 2009
Posts: 9
Name: Вася
Sergey wrote:
Это у тебя фамилия такая, Вася? Или просто прикололся?

Группа отличная. Но имею.

Это не моя настоящая фамилия, но не знаю, можно ли назвать это приколом. Просто я вроде как зарегистрировался под провокационным ником, но вопреки ожиданиям, не употребляю брани и не иду на конфликты с участниками форума и администрацией. Вот в этом и прикол, наверное.

Насчет группы, действительно отличная. Еще много таких, вроде Rag i Ryggen, Euclid и т.д.


Top
 Profile E-mail  
 
 
PostPosted: 04 Nov 2009 
труъ антисионист
User avatar
Joined: 01 Aug 2007
Posts: 4541
Lоcаtion: Откуда и большинство из нас
Age: 37
Name: Дядя Вова
Rag i Ryggen, действительно не плохой проект :true:

_________________
Image
Image


Top
 Profile  
 
Display posts from previous:  Sort by  
Post new topic Reply to topic  [ 4 posts ] 

All times are UTC + 3 hours


Who is online

Users browsing this forum: No registered users and 1 guest


You cannot post new topics in this forum
You cannot reply to topics in this forum
You cannot edit your posts in this forum
You cannot delete your posts in this forum
You cannot post attachments in this forum

Search for:
Яндекс.Метрика
Powered by phpBB © 2000, 2002, 2005, 2007 phpBB Group