\m/ 80's metal \m/

Информационно-аналитический форум "80 см пыли" (In Search We Trust) "У нас никто никуда не спешит"
Me For You - http://me-4u.com
It is currently 16 Dec 2018

All times are UTC + 3 hours

Spoiler
Chat - temporary registration for foreign users (please leave your application here)







Post new topic Reply to topic  [ 9 posts ] 
Author Message
 
PostPosted: 19 Sep 2009 
труъ антисионист
User avatar
Joined: 01 Aug 2007
Posts: 4541
Lоcаtion: Откуда и большинство из нас
Age: 38
Name: Дядя Вова
Image

Группа: Halloween
Альбом: Victims of the Night
Год: 1997
Стиль: Heavy Metal
Страна: USA
Формат: Image APE / Log / Covers
Размер: 280 Mb

*******************************************************************************************

Line Up:

Brian Thomas: Vocals
Rick Craig: Guitars
George Neal: Bass
Bill Whyte: Drums



Tracks:
1. Intro
2. Welcome
3. Victims Of The Night
4. No Place
5. Rest In Peace
6. Candy Caine
7. Nightmares
8. Angel
9. Love 'em And Loose 'em
10. Children Of The Witches
11. Revelations 23:1 (The Dream)


LOG
Exact Audio Copy V0.99 prebeta 5 from 4. May 2009
Отчёт EAC об извлечении, выполненном 10. сентября 2009, 1:43
Halloween / Victims Of the Night
Дисковод: ATAPI iHAS422 8 Adapter: 1 ID: 1
Режим чтения : Достоверность
Использование точного потока : Да
Отключение кэша аудио : Да
Использование указателей C2 : Нет
Коррекция смещения при чтении : 6
Способность читать области Lead-in и Lead-out : Нет
Заполнение пропущенных сэмплов тишиной : Да
Удаление блоков с тишиной в начале и конце : Нет
При вычислениях CRC использовались нулевые сэмплы : Да
Интерфейс : Установленный внешний ASPI-интерфейс
Выходной формат : Внутренние WAV-операции
Формат сэмплов : 44.100 Гц; 16 бит; стерео
TOC извлечённого CD
Трек | Старт | Длительность | Начальный сектор | Конечный сектор
---------------------------------------------------------------------
1 | 0:00.00 | 1:28.41 | 0 | 6640
2 | 1:28.41 | 4:05.22 | 6641 | 25037
3 | 5:33.63 | 3:21.41 | 25038 | 40153
4 | 8:55.29 | 5:00.23 | 40154 | 62676
5 | 13:55.52 | 2:32.52 | 62677 | 74128
6 | 16:28.29 | 3:57.59 | 74129 | 91962
7 | 20:26.13 | 4:32.45 | 91963 | 112407
8 | 24:58.58 | 1:28.72 | 112408 | 119079
9 | 26:27.55 | 4:51.18 | 119080 | 140922
10 | 31:18.73 | 2:44.32 | 140923 | 153254
11 | 34:03.30 | 5:42.16 | 153255 | 178920
Характеристики диапазона извлечения и сообщения об ошибках
Выбранный диапазон
Имя файла D:\Audio\Halloween (lossless)\1986-Victims Of The Night\Halloween - Victims Of the Night.wav
Пиковый уровень 100.0 %
Качество диапазона 100.0 %
CRC копии 4E6FD422
Копирование... OK
Ошибок не произошло
AccurateRip: сводка
Ни одного трека нет в базе AccurateRip
Конец отчёта

[youtube]<object width="425" height="344"><param name="movie" value="http://www.youtube.com/v/pDlOXKSPTxI&hl=ru&fs=1&color1=0x5d1719&color2=0xcd311b"></param><param name="allowFullScreen" value="true"></param><param name="allowscriptaccess" value="always"></param><embed src="http://www.youtube.com/v/pDlOXKSPTxI&hl=ru&fs=1&color1=0x5d1719&color2=0xcd311b" type="application/x-shockwave-flash" allowscriptaccess="always" allowfullscreen="true" width="425" height="344"></embed></object>[/youtube]

[youtube]<object width="425" height="344"><param name="movie" value="http://www.youtube.com/v/YIQAJ--apJk&hl=ru&fs=1&color1=0x5d1719&color2=0xcd311b"></param><param name="allowFullScreen" value="true"></param><param name="allowscriptaccess" value="always"></param><embed src="http://www.youtube.com/v/YIQAJ--apJk&hl=ru&fs=1&color1=0x5d1719&color2=0xcd311b" type="application/x-shockwave-flash" allowscriptaccess="always" allowfullscreen="true" width="425" height="344"></embed></object>[/youtube]


===================================DOWNLOAD========================================

Narod Halloween-1986-Victims Of The Night.rar
Megaupload - http://www.megaupload.com/?d=R3J2AXMI

_________________
Image
Image


Top
 Profile  
 
 
PostPosted: 19 Sep 2009 
Хиппей (support team)
User avatar
Joined: 30 Jul 2007
Posts: 108947
Lоcаtion: Киев (Kyiv, UA)
Age: 45
Name: Andrey
Спасибо, Володь :thanx:

_________________


Top
 Profile E-mail  
 
 
PostPosted: 19 Sep 2009 
Анатолий
User avatar
Joined: 18 Oct 2008
Posts: 3253
Lоcаtion: Армавир
Age: 41
Name: Анатолий
ОХ и АХ, какой клип!!! :true: Ну это же всё наше!

Гитарист, для в принципе среднестатистической группы, да ещё и в середине 80-х, просто монстр!!!

Glot

Спасибо огромное за ЭТО! :thanx:


Top
 Profile E-mail  
 
 
PostPosted: 19 Sep 2009 
Power Metal Maniac
User avatar
Joined: 09 Aug 2008
Posts: 6434
Lоcаtion: Москва
Age: 40
Name: Егор
:thanx:

_________________
Long Live Metal!


Top
 Profile  
 
 
PostPosted: 19 Sep 2009 
*** Умер ***
User avatar
Joined: 25 Apr 2009
Posts: 2188
Lоcаtion: Санкт-Петербург
Age: 33
Name: Кирилл
:true: :thanx:


Top
 Profile E-mail  
 
 
PostPosted: 19 Sep 2009 
Old Time Rock`n`Roll
User avatar
Joined: 23 Jun 2008
Posts: 3376
Lоcаtion: г.Ульяновск
Age: 40
Name: Константин
:true: :true: :true:


Top
 Profile  
 
 
PostPosted: 19 Sep 2009 
Труъ
User avatar
Joined: 14 Jul 2009
Posts: 158
Lоcаtion: Hell Is Here
Age: 48
Name: Adriano
Glot, Thank You !! :thanx: :thanx: :thanx:


Top
 Profile E-mail  
 
 
PostPosted: 19 Sep 2009 
А может смените мне статус?..
Joined: 03 Jul 2009
Posts: 836
Lоcаtion: Serbia
Name: Laki
Fantastic Thank you very much !!!!!!


Top
 Profile E-mail  
 
 
PostPosted: 30 Sep 2009 
Thrasher
User avatar
Joined: 07 Oct 2007
Posts: 2756
Lоcаtion: Russia, Moscow
Age: 34
Name: Drunk & Evil
Вова, спасибо!!!! :true:

_________________
ВОДКА, БАБЫ И БЛЮЗ / 40° till death... :bodun:
One time we saw some hookers, but when we got closer, we realised it was Mötley Crüe. ©


Top
 Profile  
 
Display posts from previous:  Sort by  
Post new topic Reply to topic  [ 9 posts ] 

All times are UTC + 3 hours


Who is online

Users browsing this forum: No registered users and 2 guests


You cannot post new topics in this forum
You cannot reply to topics in this forum
You cannot edit your posts in this forum
You cannot delete your posts in this forum
You cannot post attachments in this forum

Search for:
Яндекс.Метрика
Powered by phpBB © 2000, 2002, 2005, 2007 phpBB Group