\m/ 80's metal \m/

Информационно-аналитический форум "80 см пыли" (In Search We Trust) "У нас никто никуда не спешит"
Железнодорожная биржа - RailAgent
It is currently 19 Jul 2018

All times are UTC + 3 hours

Spoiler
Chat - temporary registration for foreign users (please leave your application here)







Post new topic Reply to topic  [ 6 posts ] 
Author Message
 
PostPosted: 15 Sep 2009 
Работнечег
User avatar
Joined: 28 Aug 2007
Posts: 5379
Lоcаtion: г. Москва
Age: 29
Name: Дима
Image

Style: Hard Rock
Year: 1985
Label: Wounded Bird Records
Country: Holland
Bitrate: flac + cue + log + covers
Size: 290 Mb


Line-Up:
Sav Pearse - Vocals
Ricky Finch - bass & moog synth
Ronald Bacquer - guitars
Joe Coster - drums & big beat
Eric John - guitars


Additional Musicians:
Peter Selbach - background vocals
Rinus Gerritsen - guest on Broken Promises


Tracklist:
1. Rockarama - 03:34
2. Christine - 04:25
3. No Place to Run - 04:49
4. You Took My Heart - 04:35
5. Too Hot to Touch - 03:01
6. Broken Promises - 04:25
7. So Hard to Get - 04:08
8. California's On Fire - 03:59
9. On the Rox - 04:48
10. Chearleaders -01:47

CUE
REM GENRE "Heavy Metal"
REM DATE 1985
REM DISCID 8508EC0A
REM COMMENT "ExactAudioCopy v0.95b4"
PERFORMER "Highway Chile"
TITLE "Rockarama"
FILE "Highway Chile - Rockarama.wav" WAVE
TRACK 01 AUDIO
TITLE "You Took My Heart"
PERFORMER "Highway Chile"
INDEX 01 00:00:00
TRACK 02 AUDIO
TITLE "Christine"
PERFORMER "Highway Chile"
INDEX 00 04:21:67
INDEX 01 04:23:67
TRACK 03 AUDIO
TITLE "No Place To Run"
PERFORMER "Highway Chile"
INDEX 00 08:36:17
INDEX 01 08:38:17
TRACK 04 AUDIO
TITLE "Too Hot To Touch"
PERFORMER "Highway Chile"
INDEX 00 13:18:19
INDEX 01 13:20:19
TRACK 05 AUDIO
TITLE "Rockarama"
PERFORMER "Highway Chile"
INDEX 00 16:12:35
INDEX 01 16:14:35
TRACK 06 AUDIO
TITLE "Broken Promises"
PERFORMER "Highway Chile"
INDEX 00 19:38:66
INDEX 01 19:40:66
TRACK 07 AUDIO
TITLE "So Hard To Get"
PERFORMER "Highway Chile"
INDEX 00 23:54:46
INDEX 01 23:56:46
TRACK 08 AUDIO
TITLE "California's On Fire"
PERFORMER "Highway Chile"
INDEX 00 27:52:50
INDEX 01 27:54:50
TRACK 09 AUDIO
TITLE "On The Rox"
PERFORMER "Highway Chile"
INDEX 00 31:43:56
INDEX 01 31:45:56
TRACK 10 AUDIO
TITLE "Cheerleaders"
PERFORMER "Highway Chile"
INDEX 00 36:19:09
INDEX 01 36:21:09


LOG
Отчёт EAC об извлечении, выполненном 14. сентября 2009, 18:31 для диска:
Highway Chile / Rockarama

Дисковод: PIONEER DVD-RW DVR-116D Adapter: 0 ID: 0
Режим чтения: Достоверный (C2: нет, Точный поток: да, Отключение кэша: да)
Коррекция смещения при чтении: 96
Способность читать области Lead-in и Lead-out : Нет

Выходной формат: Внутренние WAV-операции
44.100 Гц; 16 бит; стерео

Другие параметры:
Заполнение пропущенных сэмплов тишиной : Да
Удаление блоков с тишиной в начале и конце : Нет
Установленный внешний ASPI-интерфейс


Характеристики диапазона извлечения и сообщения об ошибках
Выбранный диапазон
Имя файла D:\Музыка\Lossless\Highway Chile - Rockarama.wav

Пиковый уровень 96.2 %
Качество диапазона 100.0 %
CRC 4FE897EE
Копирование... OK

Ошибок не произошло

Конец отчёта


Spectrum
Image


http://ifolder.ru/14022770
http://ifolder.ru/14022772
http://ifolder.ru/14022773
http://ifolder.ru/14022771

За альбом говорим спасибо Анатолию roxxx :true:
Не любителям лосей, если нужно 320, то говорите, пока диск у меня, сделаю.


Last edited by church on 15 Sep 2009, edited 1 time in total.

Top
 Profile E-mail  
 
 
PostPosted: 15 Sep 2009 
хард н хэвщик (support team)
User avatar
Joined: 02 Jun 2008
Posts: 16880
Lоcаtion: Н.Новгород
Age: 31
Name: Артем
Толя, от меня спасибка :true:


Top
 Profile  
 
 
PostPosted: 15 Sep 2009 
Хиппей (support team)
User avatar
Joined: 30 Jul 2007
Posts: 105101
Lоcаtion: Киев (Kyiv, UA)
Age: 45
Name: Andrey
Спасибо всем :true:

_________________


Top
 Profile E-mail  
 
 
PostPosted: 15 Sep 2009 
А может смените мне статус?..
Joined: 03 Jul 2009
Posts: 770
Lоcаtion: Serbia
Name: Laki
Great post. Thanks :thanx:


Top
 Profile E-mail  
 
 
PostPosted: 15 Sep 2009 
Old Time Rock`n`Roll
User avatar
Joined: 23 Jun 2008
Posts: 3342
Lоcаtion: г.Ульяновск
Age: 39
Name: Константин
Cпасибо! :dance: Еще бы 1983 г.


Top
 Profile  
 
 
PostPosted: 16 Sep 2009 
Дежурный по КУПу
User avatar
Joined: 17 Aug 2007
Posts: 5869
Age: 50
Name: Ге
:thanx:

_________________
http://jp-mania.ru/
http://jp-tourdates.ucoz.ru/


Top
 Profile  
 
Display posts from previous:  Sort by  
Post new topic Reply to topic  [ 6 posts ] 

All times are UTC + 3 hours


Who is online

Users browsing this forum: No registered users and 2 guests


You cannot post new topics in this forum
You cannot reply to topics in this forum
You cannot edit your posts in this forum
You cannot delete your posts in this forum
You cannot post attachments in this forum

Search for:
Яндекс.Метрика
Powered by phpBB © 2000, 2002, 2005, 2007 phpBB Group